<?xml version="1.0" standalone="no"?>
<!DOCTYPE svg PUBLIC "-//W3C//DTD SVG 1.1//EN" "http://www.w3.org/Graphics/SVG/1.1/DTD/svg11.dtd" >
<svg xmlns="http://www.w3.org/2000/svg">
  <metadata>Created by iconfont</metadata>
  <defs>
  <font id="iconfont" horiz-adv-x="1024">
    <font-face
      font-family="iconfont"
      font-weight="400"
      font-stretch="normal"
      units-per-em="1024"
      ascent="896"
      descent="-128"
    />
      <missing-glyph />
      
      <glyph glyph-name="out-of-stock" unicode="&#58979;" d="M422.826667 107.349333a74.752 74.752 0 0 1-70.144-45.397333 75.178667 75.178667 0 0 1 53.845333-103.125333 74.752 74.752 0 0 1 77.226667 31.914666 75.093333 75.093333 0 0 1 12.586666 41.898667 73.514667 73.514667 0 0 1-45.056 69.12 73.173333 73.173333 0 0 1-28.458666 5.589333z m347.648 0a74.752 74.752 0 0 1-69.973334-45.568 75.136 75.136 0 0 1 54.016-102.954666 74.752 74.752 0 0 1 77.184 31.914666 75.093333 75.093333 0 0 1 12.544 41.898667 74.24 74.24 0 0 1-73.813333 74.709333zM960 533.333333s-42.794667 26.069333-66.005333-45.397333c-35.541333-131.968-80.64-261.461333-80.64-261.461333h-424.96l-51.072 239.829333-37.973334 219.050667a43.306667 43.306667 0 0 1-30.933333 35.584L94.08 765.056a37.12 37.12 0 0 1-50.005333-24.917333 39.253333 39.253333 0 0 1 29.781333-48.768l156.586667-38.058667 82.005333-453.12s2.432-51.2 47.530667-51.2h475.264a48.341333 48.341333 0 0 1 45.098666 40.533333s87.125333 278.528 91.52 283.093334c4.437333 4.565333 6.101333 11.818667 7.381334 18.048 1.28 6.229333 0 17.066667 0 17.066666s-2.090667 12.672-7.381334 18.261334c-3.712 3.968-11.861333 7.338667-11.861333 7.338666z m-398.08 61.653334L452.650667 485.546667a23.552 23.552 0 0 1 0-33.408l22.698666-22.485334a22.698667 22.698667 0 0 1 33.066667 0l109.312 109.525334 109.312-109.482667a22.741333 22.741333 0 0 1 33.066667 0l22.698666 22.442667a23.552 23.552 0 0 1 0 33.408l-109.312 109.482666 109.312 109.525334a23.338667 23.338667 0 0 1 0 33.152l-22.954666 22.698666a22.656 22.656 0 0 1-33.877334 0l-109.312-109.482666L507.306667 760.32a22.698667 22.698667 0 0 1-33.066667 0l-21.632-22.698667a22.698667 22.698667 0 0 1 0-33.152l109.354667-109.525333z"  horiz-adv-x="1024" />
      
      <glyph glyph-name="check" unicode="&#58978;" d="M428.672 184.96a39.168 39.168 0 0 0-27.093333 12.16l-161.706667 164.181333a42.453333 42.453333 0 0 0 0 58.325334 39.978667 39.978667 0 0 0 28.458667 12.074666 39.381333 39.381333 0 0 0 28.416-12.074666l131.925333-135.466667 337.024 301.013333A39.466667 39.466667 0 0 0 793.984 597.333333a38.869333 38.869333 0 0 0 28.330667-12.16 40.96 40.96 0 0 0 11.818666-29.013333 41.642667 41.642667 0 0 0-11.818666-29.013333l-365.226667-330.026667a39.936 39.936 0 0 0-28.416-12.16z"  horiz-adv-x="1024" />
      
      <glyph glyph-name="world" unicode="&#58959;" d="M392.106667 289.706667a58.282667 58.282667 0 1 0-116.565334 0 58.282667 58.282667 0 0 0 116.565334 0zM708.138667 498.986667a85.76 85.76 0 1 1-171.52 0 85.76 85.76 0 0 1 171.52 0z m-85.76-49.408a49.408 49.408 0 1 0 0 98.816 49.408 49.408 0 0 0 0-98.816zM456.704 642.986667a45.013333 45.013333 0 1 0-90.026667 0 45.013333 45.013333 0 0 0 90.026667 0zM244.650667 384a45.013333 45.013333 0 1 0-90.026667 0 45.013333 45.013333 0 0 0 90.026667 0zM621.184 65.962667a45.013333 45.013333 0 1 0-90.026667 0 45.013333 45.013333 0 0 0 90.026667 0zM801.536 231.466667a58.282667 58.282667 0 1 0-116.565333 0 58.282667 58.282667 0 0 0 116.565333 0zM648.192 498.986667a25.728 25.728 0 1 0-51.456 0 25.728 25.728 0 0 0 51.456 0zM514.218667 834.218667c-111.701333 0-213.973333-40.704-292.693334-108.074667A449.28 449.28 0 0 1 64 384a448.426667 448.426667 0 0 1 112.554667-297.813333 449.152 449.152 0 0 1 337.664-152.405334 447.530667 447.530667 0 0 1 237.312 67.541334A449.92 449.92 0 0 1 964.394667 384a449.578667 449.578667 0 0 1-112.554667 297.813333 452.352 452.352 0 0 1-100.394667 84.864 448.213333 448.213333 0 0 1-237.269333 67.541334z m-225.28-115.2l-4.693334 1.28a405.333333 405.333333 0 0 0 229.973334 71.04c56.362667 0 110.037333-11.434667 158.848-32.128-23.722667-4.992-52.608-12.202667-84.608-22.485334-45.909333-14.805333-98.56-36.053333-151.253334-66.432a1133.44 1133.44 0 0 1-32.512 12.458667 1327.616 1327.616 0 0 1-115.754666 36.266667z m443.050666 6.912l3.072 0.426666a409.472 409.472 0 0 0 68.650667-55.808 1256.96 1256.96 0 0 1-101.930667-86.613333c11.008-9.258667 20.266667-20.565333 27.221334-33.28l12.586666 11.861333a1211.605333 1211.605333 0 0 0 90.709334 75.946667 406.826667 406.826667 0 0 0 61.098666-105.386667l-11.946666-0.725333a1222.570667 1222.570667 0 0 1-139.904-17.493333 117.205333 117.205333 0 0 0-0.64-43.733334 1219.712 1219.712 0 0 0 143.36 18.432c9.216 0.597333 17.024 0.981333 23.125333 1.237334 9.216-34.005333 14.165333-69.802667 14.165333-106.794667a406.613333 406.613333 0 0 0-157.994666-322.133333 1369.6 1369.6 0 0 1-4.224 148.906666c-5.589333 66.346667-17.536 142.464-42.410667 210.048-9.685333-11.818667-21.674667-21.717333-35.242667-29.013333 19.370667-58.026667 29.781333-123.648 34.986667-184.576a1328.554667 1328.554667 0 0 0 2.986667-171.648l-0.170667-3.498667a404.778667 404.778667 0 0 0-104.32-42.794666 1239.68 1239.68 0 0 0-26.581333 130.133333c-12.544 85.418667-17.066667 185.685333 9.984 256.981333l1.834666 4.608a115.968 115.968 0 0 0-39.296 17.194667 265.685333 265.685333 0 0 1-2.645333-6.613333c-31.189333-82.346667-24.96-192.170667-12.288-278.442667a1282.901333 1282.901333 0 0 1 26.88-132.266667 410.88 410.88 0 0 0-58.88-4.224 406.101333 406.101333 0 0 0-295.04 126.549334 1233.408 1233.408 0 0 0 73.685333 108.586666c50.56 66.432 117.76 139.306667 188.074667 174.506667 20.394667 10.154667 40.96 19.328 61.568 27.648a116.736 116.736 0 0 0-23.808 36.608c-19.029333-7.893333-38.058667-16.512-56.917333-25.941333-79.573333-39.808-151.722667-119.466667-203.050667-186.837334a1276.714667 1276.714667 0 0 1-68.864-100.224 407.68 407.68 0 0 0-36.522667 57.386667l0.213334 1.536c0.810667 5.248 2.133333 13.013333 4.266666 22.954667 4.181333 19.84 11.605333 48.298667 24.192 82.005333 25.258667 67.413333 71.296 155.733333 154.453334 238.933333a578.048 578.048 0 0 0 104.277333 82.048c34.005333-14.506667 67.882667-31.317333 98.602667-50.432 10.112 11.434667 22.442667 20.864 36.266666 27.605334a688.426667 688.426667 0 0 1-88.490666 49.066666c39.850667 20.48 79.061333 35.84 114.517333 47.232a798.293333 798.293333 0 0 0 101.077333 25.429334c12.544 2.304 22.528 3.754667 29.312 4.608zM141.824 316.501333c-7.125333-19.114667-12.714667-36.693333-17.066667-52.181333A407.253333 407.253333 0 0 0 106.794667 384 406.229333 406.229333 0 0 0 241.493333 686.592l2.133334-0.469333a1284.608 1284.608 0 0 0 146.346666-43.605334l1.962667-0.768a608.810667 608.810667 0 0 1-85.845333-71.082666 713.813333 713.813333 0 0 1-164.266667-254.165334z"  horiz-adv-x="1024" />
      
      <glyph glyph-name="diversification" unicode="&#58969;" d="M854.741333 305.194667c2.474667 12.458667 2.474667 24.917333 2.474667 37.376a344.448 344.448 0 0 1-141.909333 278.869333 46.933333 46.933333 0 0 1-19.925334 4.949333c-7.466667 0-12.458667-4.949333-17.450666-9.941333-4.949333-4.992-4.949333-12.458667-4.949334-19.925333 0-7.466667 4.949333-12.458667 9.941334-17.408a296.021333 296.021333 0 0 0 119.509333-236.544v-24.917334c-37.333333 0-74.666667-14.933333-102.058667-42.325333a146.773333 146.773333 0 0 1-42.325333-104.576c0-39.850667 14.933333-77.226667 42.325333-104.576a146.773333 146.773333 0 0 1 104.533334-42.325333 145.621333 145.621333 0 0 1 146.944 146.901333c0 59.733333-39.850667 114.517333-97.109334 134.442667z m-29.866666-44.8c42.325333-9.984 72.192-47.36 74.666666-92.16a94.592 94.592 0 1 0-189.226666 0c0 52.309333 42.325333 94.634667 94.634666 94.634666 4.949333 0 9.941333 0 12.416-2.474666h7.466667zM508.586667 489.472a145.621333 145.621333 0 0 1-146.901334-146.901333 145.621333 145.621333 0 0 1 146.901334-146.944 145.621333 145.621333 0 0 1 146.901333 146.944 147.2 147.2 0 0 1-146.901333 146.901333z m94.634666-146.901333a94.592 94.592 0 1 0-189.269333 0c0 52.266667 42.325333 94.592 94.634667 94.592 52.309333-2.474667 94.634667-44.8 94.634666-94.592zM187.434667 315.178667c14.933333 0 24.874667 12.416 27.392 27.392 0 116.992 67.2 221.568 171.776 268.885333 22.442667-54.784 74.709333-94.592 136.96-94.592a145.621333 145.621333 0 0 1 146.901333 146.901333A145.621333 145.621333 0 0 1 523.562667 810.666667a145.621333 145.621333 0 0 1-146.901334-146.901334c-129.493333-54.784-214.144-181.76-214.144-321.194666 0-14.933333 9.984-27.392 24.917334-27.392z m241.493333 348.586666a94.592 94.592 0 1 0 189.269333 0c0-52.309333-42.325333-92.16-92.16-92.16a96.213333 96.213333 0 0 0-67.2 27.434667c-19.925333 14.933333-29.866667 39.808-29.866666 64.725333z m234.069333-585.130666c-7.466667 2.474667-14.933333 2.474667-19.925333-2.517334-39.808-19.925333-87.125333-32.341333-131.968-32.341333h-2.474667c-54.784 0-107.093333 14.933333-151.893333 44.8 14.933333 22.4 22.4 49.792 22.4 77.226667a145.621333 145.621333 0 0 1-146.901333 146.858666A145.621333 145.621333 0 0 1 85.333333 165.76a145.621333 145.621333 0 0 1 146.901334-146.901333c32.384 0 64.725333 12.458667 89.642666 29.866666a352.682667 352.682667 0 0 1 191.744-57.258666h2.474667a326.186667 326.186667 0 0 1 151.893333 37.333333c7.466667 2.517333 9.941333 7.466667 12.458667 14.933333 2.474667 7.509333 2.474667 14.933333-2.517333 19.925334-4.949333 9.984-9.941333 14.933333-14.933334 14.933333z m-435.754666-4.992a94.592 94.592 0 1 0 0 189.226666 94.592 94.592 0 1 0 0-189.226666z"  horiz-adv-x="1024" />
      
      <glyph glyph-name="rule" unicode="&#58970;" d="M823.424 806.229333H196.010667a104.533333 104.533333 0 0 1-104.576-104.618666v-627.413334a104.533333 104.533333 0 0 1 104.576-104.576H823.466667a104.533333 104.533333 0 0 1 104.576 104.576V701.610667A104.618667 104.618667 0 0 1 823.466667 806.229333z m34.901333-732.032a34.858667 34.858667 0 0 0-34.901333-34.901333H196.010667a34.858667 34.858667 0 0 0-34.901334 34.901333V701.610667c0 19.285333 15.616 34.901333 34.901334 34.901333H823.466667c19.285333 0 34.901333-15.616 34.901333-34.901333v-627.413334zM649.130667 178.730667c19.285333 0 34.773333-15.616 34.773333-34.944 0-19.2-15.573333-34.773333-34.773333-34.773334H370.304a34.816 34.816 0 1 0 0 69.717334h278.826667z m68.693333 364.885333a21.248 21.248 0 0 1-16.810667 14.677333L581.973333 576.426667l-53.333333 113.066666a20.650667 20.650667 0 0 1-37.546667 0l-53.333333-113.066666-119.082667-18.133334a20.010667 20.010667 0 0 1-16.938666-14.677333 22.869333 22.869333 0 0 1 5.205333-22.314667l86.613333-87.808-20.48-124.501333a22.613333 22.613333 0 0 1 8.362667-21.376c6.4-4.906667 15.018667-5.589333 22.101333-1.706667l106.325334 58.88 106.197333-58.88a19.2 19.2 0 0 1 21.674667 1.706667 22.656 22.656 0 0 1 8.405333 21.376l-20.48 124.416 86.997333 87.808c5.674667 5.973333 7.68 14.506667 5.205334 22.4z m-129.109333-86.698667a22.528 22.528 0 0 1-5.973334-19.328l14.762667-92.074666-78.592 43.306666a18.858667 18.858667 0 0 1-9.6 2.474667 14.421333 14.421333 0 0 1-9.173333-2.901333L421.504 345.173333l14.805333 91.989334a22.528 22.528 0 0 1-5.973333 19.285333L366.506667 521.6l87.808 13.525333a20.949333 20.949333 0 0 1 15.616 11.690667l39.253333 83.712 39.722667-83.328a20.138667 20.138667 0 0 1 15.701333-11.690667l87.808-13.482666-63.701333-65.109334z"  horiz-adv-x="1024" />
      
      <glyph glyph-name="supply" unicode="&#58971;" d="M512 800c19.2 0 32-12.8 32-32s-12.8-32-32-32A350.976 350.976 0 0 1 160 384c0-19.2-12.8-32-32-32s-32 12.8-32 32c0 230.4 185.6 416 416 416z m0-832c-19.2 0-32 12.8-32 32s12.8 32 32 32A350.976 350.976 0 0 1 864 384c0 19.2 12.8 32 32 32s32-12.8 32-32c0-230.4-185.6-416-416-416zM556.8 563.2c-12.8-12.8-32-12.8-44.8 0-12.8 12.8-12.8 32 0 44.8l67.2 67.2c64 64 163.2 64 227.2 0S870.4 512 806.4 448l-134.4-134.4c-64-64-163.2-64-227.2 0-12.8 12.8-12.8 32 0 44.8 12.8 12.8 32 12.8 44.8 0 38.4-38.4 99.2-38.4 134.4 0l134.4 134.4c38.4 38.4 38.4 99.2 0 134.4-38.4 38.4-99.2 38.4-134.4 0L556.8 563.2zM467.2 204.8c12.8 12.8 32 12.8 44.8 0 12.8-12.8 12.8-32 0-44.8l-67.2-67.2c-64-64-163.2-64-227.2 0S153.6 256 217.6 320l134.4 134.4c64 64 163.2 64 227.2 0 12.8-12.8 12.8-32 0-44.8-12.8-12.8-32-12.8-44.8 0-38.4 38.4-99.2 38.4-134.4 0l-134.4-134.4c-38.4-38.4-38.4-99.2 0-134.4 38.4-38.4 99.2-38.4 134.4 0l67.2 64z"  horiz-adv-x="1024" />
      
      <glyph glyph-name="wholesale" unicode="&#58972;" d="M35.285333 496.981333l480 328.32 24.106667-35.242666-480-328.32-24.106667 35.242666zM1003.093333 497.066667L515.157333 825.386667l-23.808-35.413334 488.021334-328.32 23.808 35.413334zM113.92 543.445333h42.666667v-539.221333h754.688v-42.666667H113.962667V543.445333zM681.941333 342.698667a29.866667 29.866667 0 0 0 29.866667 29.866666h99.498667v-42.666666h-86.698667v-53.418667h150.698667v-42.666667h-163.498667a29.866667 29.866667 0 0 0-29.866667 29.866667v79.018667zM497.28 103.68a83.456 83.456 0 1 0-163.626667 33.28 83.456 83.456 0 1 0 163.626667-33.28z m-89.941333-23.381333a40.832 40.832 0 1 1 16.213333 80 40.832 40.832 0 0 1-16.213333-80zM825.258667 103.68a83.456 83.456 0 1 0-163.584 33.28 83.456 83.456 0 1 0 163.584-33.28z m-89.941334-23.381333a40.832 40.832 0 1 1 16.256 80 40.832 40.832 0 0 1-16.213333-80zM767.701333 391.765333h-136.405333v42.666667h136.405333a42.666667 42.666667 0 0 0 35.797334-19.413333l97.109333-149.546667v-137.898667a29.866667 29.866667 0 0 0-29.866667-29.866666h-51.456v42.666666h38.656v112.469334l-90.24 138.922666zM559.274667 135.765333h128v-42.666666h-128v42.666666zM239.274667 487.381333v-333.653333a64 64 0 0 1 64-64h40.021333v42.666667h-40.021333a21.333333 21.333333 0 0 0-21.333334 21.333333v312.32h302.677334a21.333333 21.333333 0 0 0 21.333333-21.333333v-287.018667a21.333333 21.333333 0 0 0-21.333333-21.333333h-101.333334v-42.666667h101.333334a64 64 0 0 1 64 64v287.018667a64 64 0 0 1-64 64H260.608a21.333333 21.333333 0 0 1-21.333333-21.333334zM543.274667 305.92H343.296v42.666667h199.978667v-42.666667zM510.933333 327.594667l-59.818666 69.845333 32.426666 27.733333 84.181334-98.261333-84.522667-94.037333-31.744 28.586666 59.477333 66.133334z"  horiz-adv-x="1024" />
      
      <glyph glyph-name="hosting" unicode="&#58973;" d="M364.373333 618.666667v-247.04a21.333333 21.333333 0 0 0-42.666666 0V631.466667a29.866667 29.866667 0 0 0 29.866666 29.866666h377.045334a29.866667 29.866667 0 0 0 29.866666-29.866666v-224.384a21.333333 21.333333 0 0 0-42.666666 0V618.666667H364.373333z m49.450667-56.832v-35.157334h248.576v35.157334H413.866667z m-42.666667 12.8a29.866667 29.866667 0 0 0 29.866667 29.866666h274.176a29.866667 29.866667 0 0 0 29.866667-29.866666v-60.757334a29.866667 29.866667 0 0 0-29.866667-29.866666H401.066667a29.866667 29.866667 0 0 0-29.866667 29.866666V574.634667z m42.666667-137.856v-35.2h248.576v35.2H413.866667z m-42.666667 12.8a29.866667 29.866667 0 0 0 29.866667 29.866666h274.176a29.866667 29.866667 0 0 0 29.866667-29.866666v-60.8a29.866667 29.866667 0 0 0-29.866667-29.866667H401.066667a29.866667 29.866667 0 0 0-29.866667 29.866667v60.8z m58.581334-162.56L328.149333 189.013333l67.413334-76.8 46.208 36.138667a29.866667 29.866667 0 0 0 18.346666 6.314667h196.693334l119.552 107.605333-2.304 2.389333a21.333333 21.333333 0 0 1-29.226667 1.194667l-74.368-64.512a29.866667 29.866667 0 0 0-19.626667-7.296h-106.624a29.866667 29.866667 0 0 0-17.706666 5.802667l-16.597334 12.202666a29.866667 29.866667 0 0 0 15.189334 53.802667l61.696 5.205333v15.914667h-157.056z m-25.898667 34.261333a29.866667 29.866667 0 0 0 20.736 8.362667h175.018667a29.866667 29.866667 0 0 0 29.866666-29.866667v-40.490667c0-8.96-3.968-17.066667-10.325333-22.613333h26.965333l70.784 61.44a64 64 0 0 0 87.722667-3.669333l11.605333-11.861334a29.866667 29.866667 0 0 0-1.365333-43.093333l-133.12-119.808a29.866667 29.866667 0 0 0-20.010667-7.68h-197.12l-52.309333-40.789333a29.866667 29.866667 0 0 0-40.832 3.84L288 169.984a29.866667 29.866667 0 0 0 1.706667 41.216l114.133333 110.08zM916.394667 548.309333C861.568 700.416 711.594667 810.666667 533.333333 810.666667c-212.352 0-384.554667-156.458667-403.584-353.706667l-43.264-5.034667C103.125333 676.266667 296.832 853.333333 533.333333 853.333333c199.466667 0 368.512-125.909333 426.538667-299.946666l-43.477333-5.077334zM153.813333 219.690667C208.64 67.584 358.613333-42.666667 536.874667-42.666667c212.352 0 384.554667 156.458667 403.584 353.706667l43.264 5.034667C967.082667 91.733333 773.376-85.333333 536.874667-85.333333c-199.466667 0-368.512 125.909333-426.538667 299.946666l43.477333 5.077334zM106.666667 384a21.333333 21.333333 0 1 1 0 42.666667 21.333333 21.333333 0 0 1 0-42.666667z m0-42.666667a64 64 0 1 1 0 128 64 64 0 0 1 0-128zM960 341.333333a21.333333 21.333333 0 1 1 0 42.666667 21.333333 21.333333 0 0 1 0-42.666667z m0-42.666666a64 64 0 1 1 0 128 64 64 0 0 1 0-128z"  horiz-adv-x="1024" />
      
      <glyph glyph-name="right-white" unicode="&#58974;" d="M768.928154 652.12416l216.76032-216.76032a61.44 61.44 0 0 0 0-86.87616l-216.84224-216.8832a3.80928 3.80928 0 0 0-5.48864 0l-59.71968 59.71968a3.80928 3.80928 0 0 0 0 5.48864l142.5408 142.45888a3.85024 3.85024 0 0 1-2.6624 6.5536H24.152474A3.85024 3.85024 0 0 0 20.343194 349.5936v84.45952c0 2.12992 1.72032 3.85024 3.80928 3.85024h819.36384c3.4816 0 5.07904 4.13696 2.70336 6.5536l-142.45888 142.45888a3.80928 3.80928 0 0 0 0 5.44768l59.71968 59.71968a3.80928 3.80928 0 0 0 5.44768 0z"  horiz-adv-x="1024" />
      
      <glyph glyph-name="left-white" unicode="&#58975;" d="M249.48736 652.12416L32.72704 435.36384a61.44 61.44 0 0 1 0-86.87616l216.84224-216.8832a3.80928 3.80928 0 0 1 5.48864 0l59.71968 59.71968a3.80928 3.80928 0 0 1 0 5.48864l-142.5408 142.45888a3.85024 3.85024 0 0 0 2.6624 6.5536h819.36384a3.85024 3.85024 0 0 1 3.85024 3.80928v84.45952a3.85024 3.85024 0 0 1-3.85024 3.85024H174.8992a3.80928 3.80928 0 0 0-2.70336 6.5536l142.45888 142.45888a3.80928 3.80928 0 0 1 0 5.44768L254.976 652.12416a3.80928 3.80928 0 0 1-5.48864 0z"  horiz-adv-x="1024" />
      
      <glyph glyph-name="left-red" unicode="&#58976;" d="M259.882667 655.104L34.090667 429.312a64 64 0 0 1 0-90.538667l225.877333-225.877333a3.968 3.968 0 0 1 5.717333 0l62.208 62.208a3.968 3.968 0 0 1 0 5.674667l-148.48 148.394666a4.010667 4.010667 0 0 0 2.773334 6.826667h853.504a4.010667 4.010667 0 0 1 4.010666 4.010667V427.946667a4.010667 4.010667 0 0 1-4.010666 4.010666H182.186667a3.968 3.968 0 0 0-2.816 6.826667l148.394666 148.352a3.968 3.968 0 0 1 0 5.717333L265.6 655.104a3.968 3.968 0 0 1-5.717333 0z"  horiz-adv-x="1066" />
      
      <glyph glyph-name="right-red" unicode="&#58977;" d="M779.776427 655.104l225.792-225.792a64 64 0 0 0 0-90.538667l-225.877334-225.877333a3.968 3.968 0 0 0-5.717333 0l-62.208 62.208a3.968 3.968 0 0 0 0 5.674667l148.48 148.394666a4.010667 4.010667 0 0 1-2.773333 6.826667H3.968427A4.010667 4.010667 0 0 0 0.000427 340.010667V427.946667c0 2.218667 1.792 4.010667 3.968 4.010666h853.504c3.626667 0 5.290667 4.266667 2.816 6.826667l-148.394667 148.352a3.968 3.968 0 0 0 0 5.717333l62.208 62.208a3.968 3.968 0 0 0 5.674667 0z"  horiz-adv-x="1024" />
      
      <glyph glyph-name="sign-up" unicode="&#58942;" d="M601.45664 415.98976H122.88v-63.97952h478.57664l-143.7696-143.7696 45.2608-45.21984 206.52032 206.47936a20.48 20.48 0 0 1 0 28.99968l-206.52032 206.47936-45.21984-45.2608 143.68768-143.72864zM314.90048 575.97952V703.97952h512v-640h-512v128H250.88v-159.98976c0-17.65376 14.336-31.98976 31.98976-31.98976H858.9312c17.65376 0 31.98976 14.336 31.98976 31.98976V736.01024a31.98976 31.98976 0 0 1-31.98976 31.98976H282.86976a31.98976 31.98976 0 0 1-31.9488-31.98976v-159.98976h63.97952z"  horiz-adv-x="1024" />
      
      <glyph glyph-name="black-person" unicode="&#58887;" d="M245.333333 576c0-140.8 115.2-256 256-256s256 115.2 256 256c0 89.6-51.2 172.8-128 224-76.8 51.2-179.2 44.8-256 0-76.8-44.8-128-134.4-128-224z m473.6-256c-64-51.2-134.4-83.2-217.6-83.2-83.2 0-160 32-217.6 83.2C162.133333 243.2 85.333333 96 85.333333-64h832c0 160-76.8 307.2-198.4 384z"  horiz-adv-x="1024" />
      
      <glyph glyph-name="black-orders" unicode="&#58889;" d="M603.776 827.349333H409.941333c-23.765333 0-42.794667-21.162667-42.794666-47.317333 0-26.197333 19.072-47.402667 42.794666-47.402667h195.029334c22.613333 0 41.642667 21.205333 41.642666 47.402667 0 26.154667-19.029333 47.317333-42.837333 47.317333z m210.517333-31.573333h-96.554666c0.981333-5.162667 1.578667-10.410667 1.578666-15.744 0-39.808-28.885333-78.976-63.232-78.976h-296.533333c-36.181333 0-65.109333 39.168-65.109333 78.976 0 5.333333 0.597333 10.581333 1.578666 15.786667h-97.706666c-78.506667-0.042667-97.834667-44.544-97.834667-108.8v-636.202667c0-68.992 27.648-107.605333 103.765333-107.605333h604.117334c76.117333 0 113.109333 30.293333 113.109333 107.562666V687.018667c0 64.213333-34.645333 108.757333-107.178667 108.757333zM715.093333 167.68H295.338667c-15.488 0-30.933333 18.944-30.933334 34.474667 0 15.445333 13.056 28.672 28.544 28.672h418.56c15.488 0 28.586667-12.032 29.738667-28.672 0-15.530667-10.666667-34.474667-26.154667-34.474667z m1.706667 168.448H297.002667c-15.445333 0-25.301333 16.64-25.301334 32.128s13.056 31.018667 28.544 31.018667h418.56c15.488 0 28.586667-14.378667 29.738667-31.018667 0-15.488-16.298667-32.128-31.744-32.128z m0 173.013333H297.002667c-15.445333 0-25.301333 16.64-25.301334 32.128s13.056 31.018667 28.544 31.018667h418.56c15.488 0 28.586667-14.378667 29.738667-31.018667 0-15.488-16.298667-32.128-31.744-32.128z"  horiz-adv-x="1024" />
      
      <glyph glyph-name="warehouse" unicode="&#58983;" d="M509.098667 383.914667a77.653333 77.653333 0 0 1-56.746667-20.437334 79.402667 79.402667 0 0 1-25.685333-55.04c0-21.546667 8.448-42.197333 23.466666-57.386666a79.744 79.744 0 0 1 113.408 0c15.061333 15.189333 23.509333 35.84 23.509334 57.386666a79.402667 79.402667 0 0 1-24.021334 53.546667 77.653333 77.653333 0 0 1-53.930666 21.930667zM972.032 425.941333l-362.112 382.762667-6.656 7.253333a114.773333 114.773333 0 0 1-82.218667 37.290667 119.253333 119.253333 0 0 1-91.221333-36.693333l-378.282667-390.613334a33.450667 33.450667 0 0 1 23.765334-56.064h84.608v-332.373333c0.042667-32.512 12.842667-63.701333 35.584-86.741333 22.741333-23.04 53.546667-36.010667 85.76-36.096h475.818666a120.576 120.576 0 0 1 84.48 36.949333c22.229333 23.04 34.602667 54.058667 34.474667 86.272v331.52h72.533333a32.725333 32.725333 0 0 1 30.208 20.437333 33.706667 33.706667 0 0 1-6.741333 36.096z m-283.733333-230.912a32.682667 32.682667 0 0 0-3.584-5.546666l-155.946667-197.12a21.845333 21.845333 0 0 0-25.386667-6.272 21.802667 21.802667 0 0 0-7.552 5.461333l-156.288 197.973333a69.632 69.632 0 0 0-4.181333 6.101334 199.338667 199.338667 0 0 0-38.314667 116.138666c0 113.493333 96.128 205.653333 214.144 205.653334 117.973333 0 215.168-91.605333 215.168-205.653334a201.045333 201.045333 0 0 0-38.058666-116.736z"  horiz-adv-x="1024" />
      
      <glyph glyph-name="black-car" unicode="&#58984;" d="M357.589333 127.018667c12.074667 0 23.466667-2.133333 34.261334-6.4a85.376 85.376 0 0 0 47.104-44.416c4.778667-10.282667 7.125333-21.205333 7.125333-32.682667 0-11.52-2.346667-22.357333-7.125333-32.64-4.736-10.282667-11.093333-19.2-19.029334-26.794667a91.776 91.776 0 0 0-28.074666-18.133333 87.466667 87.466667 0 0 0-34.261334-6.826667 91.776 91.776 0 0 0-63.274666 24.96 87.125333 87.125333 0 0 0-19.029334 26.794667 76.885333 76.885333 0 0 0-7.125333 32.64c0 11.52 2.389333 22.4 7.125333 32.682667a85.376 85.376 0 0 0 47.104 44.458666c10.794667 4.224 22.528 6.357333 35.2 6.357334z m395.818667-1.834667c12.074667 0 23.637333-2.133333 34.730667-6.357333a84.48 84.48 0 0 0 47.573333-44.458667c4.778667-10.24 7.168-21.162667 7.168-32.64 0-11.52-2.389333-22.4-7.168-32.682667-4.736-10.24-11.093333-19.2-19.029333-26.752a90.453333 90.453333 0 0 0-28.544-18.133333 90.965333 90.965333 0 0 0-97.024 18.133333 87.168 87.168 0 0 0-19.029334 26.752 76.885333 76.885333 0 0 0-7.168 32.682667c0 11.477333 2.389333 22.357333 7.168 32.64a85.461333 85.461333 0 0 0 47.104 44.458667c10.752 4.266667 22.186667 6.357333 34.218667 6.357333z m159.872 515.370667c17.749333 0 31.573333-2.304 41.386667-6.826667 9.813333-4.522667 16.810667-10.112 20.906666-16.768a36.778667 36.778667 0 0 0 5.717334-21.333333c-0.298667-7.552-1.408-14.08-3.328-19.498667-1.877333-5.461333-6.016-16.64-12.373334-33.578667-6.314667-16.938667-13.141333-35.541333-20.48-55.808-7.253333-20.266667-14.549333-40.362667-21.845333-60.330666-7.296-19.968-13.184-35.669333-17.621333-47.189334-8.234667-24.192-18.517333-40.96-30.890667-50.346666-12.373333-9.386667-27.733333-14.08-46.165333-14.08H329.088l13.312-81.621334h480.469333c30.464 0 45.653333-12.416 45.653334-37.205333 0-12.117333-2.986667-22.528-9.002667-31.317333-6.058667-8.789333-17.92-13.141333-35.712-13.141334H325.248c-12.672 0-23.296 2.730667-31.872 8.149334a70.442667 70.442667 0 0 0-21.418667 21.333333 126.933333 126.933333 0 0 0-13.781333 28.586667 251.392 251.392 0 0 0-8.106667 29.013333c-0.597333 3.626667-2.346667 12.373333-5.205333 26.325333-2.858667 13.909333-6.357333 31.317333-10.453333 52.181334a428574.805333 428574.805333 0 0 0-29.013334 147.413333 38342.698667 38342.698667 0 0 1-40.96 204.16H93.098667a39.850667 39.850667 0 0 0-23.808 6.826667 60.373333 60.373333 0 0 0-24.234667 36.693333A94.122667 94.122667 0 0 0 42.666667 732.16c0 12.117333 4.266667 22.101333 12.842666 29.952 8.533333 7.850667 20.138667 11.818667 34.730667 11.818667H186.325333c12.714667 0 22.869333-1.834667 30.464-5.461334 7.594667-3.626667 13.653333-8.149333 18.090667-13.610666 4.437333-5.461333 7.594667-11.178667 9.514667-17.237334l4.736-15.445333c1.28-4.821333 2.56-11.605333 3.84-20.394667l3.797333-26.752c1.877333-10.922667 3.797333-22.4 5.674667-34.474666h650.837333z m-71.381333 29.013333H493.653333L619.264 789.333333c14.592 13.909333 30.592 21.034667 48.042667 21.333334 17.450667 0.298667 33.450667-6.528 48.042666-20.437334l126.549334-120.661333z"  horiz-adv-x="1024" />
      
      <glyph glyph-name="down" unicode="&#58985;" d="M878.592 645.12c19.797333 0 35.84-3.754667 48.128-11.264 12.288-7.509333 20.48-17.408 24.576-29.696 4.096-12.288 4.096-26.112 0-41.472s-12.970667-30.549333-26.624-45.568a15414.4 15414.4 0 0 1-159.744-180.224 6588.16 6588.16 0 0 0-148.48-164.864c-12.970667-13.653333-28.16-24.234667-45.568-31.744a141.141333 141.141333 0 0 0-53.76-11.776 147.797333 147.797333 0 0 0-53.248 8.704 103.893333 103.893333 0 0 0-43.008 28.672A8586.453333 8586.453333 0 0 1 337.92 256l-88.064 92.16c-28.672 30.72-57.173333 60.928-85.504 90.624a2846.464 2846.464 0 0 0-79.36 86.528c-11.605333 12.970667-19.114667 26.453333-22.528 40.448a66.261333 66.261333 0 0 0 1.024 38.4c4.096 11.605333 11.946667 21.162667 23.552 28.672 11.605333 7.509333 26.624 11.264 45.056 11.264 23.893333 0 56.832 0.170667 98.816 0.512 41.984 0.341333 87.893333 0.512 137.728 0.512h509.952z"  horiz-adv-x="1024" />
      
      <glyph glyph-name="black-right" unicode="&#58987;" d="M251.861333 790.528v-527.36c0-51.2-0.170667-98.261333-0.512-141.269333a13488 13488 0 0 1-0.512-100.352c0-16.384 3.925333-30.037333 11.776-40.96 7.850667-10.922667 17.749333-18.261333 29.696-22.016 11.946667-3.754667 25.088-3.754667 39.424 0 14.336 3.754667 27.648 11.776 39.936 24.064a3728.896 3728.896 0 0 0 81.92 81.408c29.354667 28.330667 59.562667 56.832 90.624 85.504 31.061333 28.672 62.464 57.344 94.208 86.016 31.744 28.629333 62.293333 56.32 91.648 82.901333a108.373333 108.373333 0 0 1 29.184 43.008c6.485333 17.066667 9.386667 34.816 8.704 53.248a159.744 159.744 0 0 1-11.776 54.272 115.328 115.328 0 0 1-32.256 45.056 7806.378667 7806.378667 0 0 0-79.36 70.144c-26.282667 23.552-53.248 47.786667-80.896 72.704a208211.328 208211.328 0 0 0-183.808 165.376c-15.018667 13.653333-30.208 22.698667-45.568 27.136-15.36 4.437333-29.184 5.12-41.472 2.048-12.288-3.072-22.186667-9.898667-29.696-20.48-7.509333-10.581333-11.264-24.064-11.264-40.448z"  horiz-adv-x="1024" />
      
      <glyph glyph-name="black-left" unicode="&#58988;" d="M772.096 790.570667v-527.36c0-51.2 0.170667-98.304 0.512-141.312a13486.933333 13486.933333 0 0 0 0.512-100.352c0-16.384-3.925333-30.037333-11.776-40.96a57.088 57.088 0 0 0-29.696-22.016c-11.946667-3.754667-25.088-3.754667-39.424 0-14.336 3.754667-27.648 11.776-39.936 24.064a3725.525333 3725.525333 0 0 1-81.92 81.408 5606.826667 5606.826667 0 0 1-90.624 85.504 11718.656 11718.656 0 0 1-94.208 86.016l-91.648 82.944a108.373333 108.373333 0 0 0-29.184 43.008A134.4 134.4 0 0 0 256 414.762667c0.682667 18.432 4.608 36.522667 11.776 54.272 7.168 17.749333 17.92 32.768 32.256 45.056 26.624 23.210667 53.077333 46.592 79.36 70.144 26.282667 23.552 53.248 47.786667 80.896 72.704l87.04 78.336 96.768 87.04c15.018667 13.653333 30.208 22.698667 45.568 27.136 15.36 4.437333 29.184 5.12 41.472 2.048 12.288-3.072 22.186667-9.898667 29.696-20.48 7.509333-10.581333 11.264-24.064 11.264-40.448z"  horiz-adv-x="1024" />
      
      <glyph glyph-name="search-1" unicode="&#58989;" d="M53.333333 425.941333c0 230.144 186.581333 416.725333 416.725334 416.725334 230.144 0 416.725333-186.581333 416.725333-416.725334a415.104 415.104 0 0 0-100.266667-271.189333l174.762667-174.805333a32 32 0 1 0-45.226667-45.226667l-174.848 174.805333a415.061333 415.061333 0 0 0-271.146666-100.266666c-230.144 0-416.725333 186.538667-416.725334 416.682666z m416.725334 352.725334a352.725333 352.725333 0 1 1 0-705.450667 352.725333 352.725333 0 0 1 0 705.450667z m-150.613334-179.456a212.48 212.48 0 0 0 150.613334 62.421333 212.48 212.48 0 0 0 150.613333-62.421333 32 32 0 1 0-45.226667-45.226667 148.48 148.48 0 0 1-105.386666 43.648 148.48 148.48 0 0 1-105.386667-43.648 32 32 0 0 0-45.226667 45.226667z"  horiz-adv-x="1024" />
      
      <glyph glyph-name="categorization1" unicode="&#58990;" d="M137.472 618.538667c28.458667 0 52.138667 24.234667 52.138667 53.418666C189.610667 701.098667 165.930667 725.333333 137.472 725.333333 109.013333 725.333333 85.333333 701.098667 85.333333 671.957333c0-29.184 23.68-53.418667 52.138667-53.418666zM298.666667 674.218667a42.666667 42.666667 0 0 0 42.666666 42.666666h554.666667a42.666667 42.666667 0 1 0 0-85.333333H341.333333a42.666667 42.666667 0 0 0-42.666666 42.666667zM137.472 311.466667c28.458667 0 52.138667 24.234667 52.138667 53.333333 0 29.184-23.68 53.418667-52.138667 53.418667-28.458667 0-52.138667-24.234667-52.138667-53.376 0-29.141333 23.68-53.418667 52.138667-53.418667zM298.666667 367.104a42.666667 42.666667 0 0 0 42.666666 42.666667h554.666667a42.666667 42.666667 0 0 0 0-85.333334H341.333333a42.666667 42.666667 0 0 0-42.666666 42.666667zM137.472 12.8c28.458667 0 52.138667 24.234667 52.138667 53.333333 0 29.184-23.68 53.418667-52.138667 53.418667-28.458667 0-52.138667-24.234667-52.138667-53.376 0-29.141333 23.68-53.418667 52.138667-53.418667zM298.666667 68.48a42.666667 42.666667 0 0 0 42.666666 42.666667h554.666667a42.666667 42.666667 0 0 0 0-85.333334H341.333333a42.666667 42.666667 0 0 0-42.666666 42.666667z"  horiz-adv-x="1024" />
      
      <glyph glyph-name="download-file" unicode="&#59002;" d="M793.76384 170.10688a47.9232 47.9232 0 0 0-33.9968 14.17216 48.66048 48.66048 0 0 0 0 68.56704 47.9232 47.9232 0 0 0 33.9968 14.21312 125.82912 125.82912 0 0 1 92.9792 40.96 127.7952 127.7952 0 0 1 33.21856 96.6656 128.32768 128.32768 0 0 1-47.84128 90.19392 126.23872 126.23872 0 0 1-98.22208 25.8048 47.75936 47.75936 0 0 0-38.95296 11.264 48.49664 48.49664 0 0 0-16.62976 37.23264v1.76128A196.07552 196.07552 0 0 1 660.80768 707.584a193.04448 193.04448 0 0 1-136.27392 56.44288A193.04448 193.04448 0 0 1 388.25984 707.584a196.07552 196.07552 0 0 1-57.50784-136.68352v-1.6384a48.82432 48.82432 0 0 0-16.62976-36.98688 48.00512 48.00512 0 0 0-38.7072-11.30496 125.66528 125.66528 0 0 1-97.8944-26.29632A127.3856 127.3856 0 0 1 130.08896 404.48a128.53248 128.53248 0 0 1 33.42336-96.37888 126.60736 126.60736 0 0 1 92.85632-40.83712c12.77952 0 24.9856-5.12 33.9968-14.21312a48.70144 48.70144 0 0 0 0-68.56704 47.9232 47.9232 0 0 0-33.9968-14.21312 221.92128 221.92128 0 0 0-154.8288 62.34112 225.36192 225.36192 0 0 0-68.56704 153.14944 225.64864 225.64864 0 0 0 56.03328 158.22848 222.208 222.208 0 0 0 149.2992 74.752 292.864 292.864 0 0 0 98.59072 175.14496A288.68608 288.68608 0 0 0 524.41088 863.232c68.68992 0 135.168-24.576 187.55584-69.34528a292.864 292.864 0 0 0 98.54976-175.14496 222.208 222.208 0 0 0 149.0944-74.5472 225.64864 225.64864 0 0 0 56.27904-157.81888 225.36192 225.36192 0 0 0-67.95264-153.10848 221.92128 221.92128 0 0 0-154.25536-62.99648v-0.16384zM375.88992 18.96448l129.88416-130.90816a26.33728 26.33728 0 0 1 37.35552 0l129.88416 130.90816a26.74688 26.74688 0 0 1-18.6368 45.4656 26.25536 26.25536 0 0 0-24.45312 16.42496 26.8288 26.8288 0 0 0-2.048 10.24v271.07328a26.78784 26.78784 0 0 1-7.74144 18.8416 26.33728 26.33728 0 0 1-18.67776 7.82336h-154.09152a26.33728 26.33728 0 0 1-18.67776-7.7824 26.74688 26.74688 0 0 1-7.7824-18.8416v-271.1552a26.8288 26.8288 0 0 0-16.30208-24.65792 26.29632 26.29632 0 0 0-10.15808-2.048 26.29632 26.29632 0 0 1-24.1664-16.50688 26.86976 26.86976 0 0 1 5.61152-28.8768z"  horiz-adv-x="1024" />
      
      <glyph glyph-name="black-join" unicode="&#59003;" d="M440.149333 213.973333c8.576-10.24 23.893333-11.434667 34.304-2.858666l376.661334 313.344-153.941334 184.96-376.832-313.344a24.32 24.32 0 0 1-3.498666-34.133334l123.306666-147.968zM945.408 602.88c41.642667 34.474667 47.786667 95.744 13.653333 136.533333l-30.805333 36.949334c-34.090667 40.832-95.317333 45.952-136.96 11.434666l-56.576-46.933333 153.941333-184.96 56.746667 46.933333zM186.794667 97.194667l212.309333 51.2a24.32 24.32 0 0 1 3.498667 34.133333l-123.306667 148.010667a24.448 24.448 0 0 1-34.304 2.858666l-89.002667-199.253333a24.32 24.32 0 0 1-3.456-34.133333c8.533333-10.154667 23.893333-11.392 34.261334-2.816z m755.157333-60.245334H121.472a36.352 36.352 0 0 1-36.138667-36.693333v-48.810667c0-20.224 16.128-36.736 36.138667-36.736h820.48a36.352 36.352 0 0 1 36.138667 36.693334v48.810666a36.48 36.48 0 0 1-36.138667 36.736z"  horiz-adv-x="1024" />
      
      <glyph glyph-name="file-copy" unicode="&#59004;" d="M256 772.992C256 810.432 289.28 832 319.68 832h279.68a64 64 0 0 0 45.76-19.2l232.576-237.056a64 64 0 0 0 18.304-44.8l0.32-407.936c0-37.376-33.28-59.008-63.744-59.008H320c-30.336 0-63.616 21.568-63.616 59.008L256 772.992zM320 768l0.32-640h512L832 511.168H576V768H320z m320-41.344v-151.488h148.608L640 726.656zM128 576v-576.832a64 64 0 0 1 64-64h512v64H192V576H128z"  horiz-adv-x="1024" />
      
      <glyph glyph-name="service" unicode="&#58982;" d="M161.024 488.106667a352 352 0 0 0 701.952 0 32 32 0 0 0 1.024-8.106667v-256a32 32 0 0 0-1.365333-9.301333 288 288 0 0 0-286.634667-259.669334H512v64h64a224.085333 224.085333 0 0 1 218.154667 172.970667H672a32 32 0 0 0-32 32v256a32 32 0 0 0 32 32h123.477333A288.085333 288.085333 0 0 1 228.522667 512H352a32 32 0 0 0 32-32v-256a32 32 0 0 0-32-32H192a32 32 0 0 0-32 32v256c0 2.773333 0.341333 5.504 1.024 8.106667z m638.976-40.106667H704V256h96v192z m-576 0V256H320v192H224z"  horiz-adv-x="1024" />
      
      <glyph glyph-name="code" unicode="&#58967;" d="M928 736a32 32 0 0 0 32-32v-640a32 32 0 0 0-32-32H96a32 32 0 0 0-32 32V704a32 32 0 0 0 32 32h832zM720 286.368l-143.52-147.52L336 459.648 128 182.176V96h768v9.504L720 286.368zM896 672H128v-383.808L310.208 531.2a32.448 32.448 0 0 0 48.96 3.04l2.624-3.04 221.056-294.88L697.92 354.528c11.776 11.04 29.952 11.52 42.272 1.632l2.944-2.688L896 196.48V672z m-160-96a64 64 0 1 0 0-128 64 64 0 0 0 0 128z"  horiz-adv-x="1024" />
      
      <glyph glyph-name="login-user" unicode="&#58968;" d="M512 367.616c55.979 1.365 102.4 20.48 139.264 57.344s55.979 83.285 57.344 139.264c-1.365 55.979-20.48 102.4-57.344 139.264S567.979 759.467 512 760.832c-55.979-1.365-102.4-20.48-139.264-57.344s-55.979-83.285-57.344-139.264c1.365-55.979 20.48-102.4 57.344-139.264S456.021 368.981 512 367.616z m0-65.536c-74.411 2.048-136.192 27.648-185.344 76.8s-74.752 110.933-76.8 185.344c2.048 74.411 27.648 136.192 76.8 185.344S437.589 824.32 512 826.368c74.411-2.048 136.192-27.648 185.344-76.8s74.752-110.933 76.8-185.344c-2.048-74.411-27.648-136.192-76.8-185.344S586.411 304.128 512 302.08zM839.68-25.6v98.304c-0.683 27.989-10.24 51.2-28.672 69.632s-41.643 27.989-69.632 28.672H282.624c-27.989-0.683-51.2-10.24-69.632-28.672s-27.989-41.643-28.672-69.632V-25.6c0-9.557-3.072-17.408-9.216-23.552s-13.995-9.216-23.552-9.216-17.408 3.072-23.552 9.216-9.216 13.995-9.216 23.552v98.304c1.365 46.421 17.408 84.992 48.128 115.712s69.291 46.763 115.712 48.128h458.752c46.421-1.365 84.992-17.408 115.712-48.128s46.763-69.291 48.128-115.712V-25.6c0-9.557-3.072-17.408-9.216-23.552s-13.995-9.216-23.552-9.216-17.408 3.072-23.552 9.216-9.216 13.995-9.216 23.552z"  horiz-adv-x="1024" />
      
      <glyph glyph-name="pdf" unicode="&#59187;" d="M901.850593-30.476283a48.761858 48.761858 0 0 0-48.761859-48.761859H170.422718a48.761858 48.761858 0 0 0-48.761858 48.761859V847.237166a48.761858 48.761858 0 0 0 48.761858 48.761859h418.864363a48.761858 48.761858 0 0 0 34.620919-14.140939l263.801654-263.801654a48.761858 48.761858 0 0 0 14.140939-34.620919V-30.476283zM901.850593-30.476283v-48.761859a48.761858 48.761858 0 0 0-48.761859-48.761858H170.422718a48.761858 48.761858 0 0 0-48.761858 48.761858v48.761859a48.761858 48.761858 0 0 1 48.761858-48.761859h682.666016a48.761858 48.761858 0 0 1 48.761859 48.761859zM24.137143 359.618583h975.237166v-243.809291a48.761858 48.761858 0 0 0-48.761858-48.761859H72.899001a48.761858 48.761858 0 0 0-48.761858 48.761859v243.809291zM121.66086 359.618583V457.1423l-97.523717-97.523717h97.523717zM901.850593 359.618583l0.975237 97.523717 97.036098-97.523717H901.850593zM267.946434 310.856725h84.845634a57.051374 57.051374 0 0 0 41.935198-15.603795 55.1009 55.1009 0 0 0 16.091413-40.959961 55.588518 55.588518 0 0 0-16.091413-40.959961 59.001849 59.001849 0 0 0-43.398054-16.091413h-48.761858v-76.556118H267.946434z m32.670446-81.919922h43.885672a42.422817 42.422817 0 0 1 25.843785 6.339041 23.893311 23.893311 0 0 1 7.801897 19.992362q0 24.868548-32.670445 24.868548h-44.860909zM434.71199 307.931013H511.755726a73.142787 73.142787 0 0 0 58.51423-25.356166 100.937047 100.937047 0 0 0 21.942836-68.266602 110.689418 110.689418 0 0 0-20.967599-69.729457A71.679932 71.679932 0 0 0 511.755726 115.809292H434.71199z m32.670445-158.963658H511.755726a43.398054 43.398054 0 0 1 36.083775 17.066651A75.093262 75.093262 0 0 1 560.517584 213.333008a70.704695 70.704695 0 0 1-13.65332 48.761859 48.761858 48.761858 0 0 1-37.546631 16.579031h-41.935198zM755.565018 277.211043h-100.937047v-45.348529H755.565018v-31.207589h-100.937047v-81.919922h-32.670445v190.171248H755.565018zM901.850593 583.435513v-6.82666h-263.801654a48.761858 48.761858 0 0 0-48.761858 48.761858V895.999025a48.761858 48.761858 0 0 0 34.620919-14.140939l264.289272-263.801654a48.761858 48.761858 0 0 0 13.653321-34.620919z"  horiz-adv-x="1024" />
      
      <glyph glyph-name="excel" unicode="&#59398;" d="M205.799024 831.063415H664.850732l231.773658-231.773659v-638.376585c0-13.79353-11.18208-24.97561-24.97561-24.97561H205.799024c-13.79353 0-24.97561 11.18208-24.975609 24.97561V806.087805c0 13.79353 11.18208 24.97561 24.975609 24.97561z m448.70681-24.97561H205.799024v-845.174634H871.64878V588.944859L654.505834 806.087805zM664.850732 831.063415l-10.989269-23.477074v-196.807804c0-13.79353 11.18208-24.97561 24.97561-24.97561h194.310244L896.62439 599.289756 664.850732 831.063415z m13.986341-49.306849L849.815102 610.778537H678.837073V781.756566zM255.250732 324.558049m9.990244 0l555.457561 0q9.990244 0 9.990243-9.990244l0 0q0-9.990244-9.990243-9.990244l-555.457561 0q-9.990244 0-9.990244 9.990244l0 0q0 9.990244 9.990244 9.990244ZM255.250732 188.690732m9.990244 0l555.457561 0q9.990244 0 9.990243-9.990244l0 0q0-9.990244-9.990243-9.990244l-555.457561 0q-9.990244 0-9.990244 9.990244l0 0q0 9.990244 9.990244 9.990244ZM255.250732 256.62439m9.990244 0l555.457561 0q9.990244 0 9.990243-9.990244l0 0q0-9.990244-9.990243-9.990244l-555.457561 0q-9.990244 0-9.990244 9.990244l0 0q0 9.990244 9.990244 9.990244ZM255.250732 121.756098m9.990244 0l555.457561 0q9.990244 0 9.990243-9.990244l0 0q0-9.990244-9.990243-9.990244l-555.457561 0q-9.990244 0-9.990244 9.990244l0 0q0 9.990244 9.990244 9.990244ZM255.250732 53.822439m9.990244 0l555.457561 0q9.990244 0 9.990243-9.990244l0 0q0-9.990244-9.990243-9.990244l-555.457561 0q-9.990244 0-9.990244 9.990244l0 0q0 9.990244 9.990244 9.990244ZM67.434146 702.189268m15.984391 0l286.72 0q15.98439 0 15.98439-15.98439l0-286.72q0-15.98439-15.98439-15.98439l-286.72 0q-15.98439 0-15.984391 15.98439l0 286.72q0 15.98439 15.984391 15.98439ZM242.569116 542.76096l89.224866-84.502478c4.337764-4.107988 4.523582-10.954302 0.415595-15.291067-4.107988-4.337764-10.954302-4.523582-15.291068-0.415595l-89.224866 84.502479-84.502478-89.224867c-4.107988-4.337764-10.954302-4.523582-15.291067-0.415594-4.337764 4.107988-4.523582 10.954302-0.415595 15.291067l84.502478 89.224867-89.224866 84.502478c-4.337764 4.107988-4.523582 10.954302-0.415594 15.291067 4.107988 4.337764 10.954302 4.523582 15.291067 0.415594l89.224867-84.502478 84.502478 89.224867c4.107988 4.337764 10.954302 4.523582 15.291067 0.415594 4.337764-4.107988 4.523582-10.954302 0.415594-15.291068l-84.502478-89.224866z"  horiz-adv-x="1024" />
      
      <glyph glyph-name="intelligent" unicode="&#58961;" d="M851.754667 354.986667a549.973333 549.973333 0 0 1-25.472 29.013333 563.2 563.2 0 0 1 25.472 29.013333c28.544 34.901333 48.042667 68.224 57.984 98.986667 14.805333 45.909333 5.034667 77.568-5.674667 96-10.666667 18.432-33.578667 42.581333-81.194667 52.864-31.914667 6.826667-70.826667 6.826667-115.626666-0.213333-12.373333-1.92-25.130667-4.394667-38.101334-7.296-3.925333 12.586667-8.106667 24.704-12.629333 36.266666-16.298667 41.941333-35.712 75.306667-57.6 99.2C566.058667 824.490667 533.546667 832 512 832c-21.546667 0-54.058667-7.509333-86.869333-43.178667-21.973333-23.893333-41.386667-57.258667-57.642667-99.2-4.522667-11.562667-8.704-23.68-12.629333-36.266666a587.093333 587.093333 0 0 1-38.101334 7.296c-44.8 7.04-83.754667 7.082667-115.626666 0.213333-47.616-10.24-70.442667-34.432-81.237334-52.864-10.794667-18.432-20.48-50.090667-5.674666-96 9.941333-30.762667 29.44-64.085333 58.026666-98.986667 7.893333-9.685333 16.341333-19.328 25.429334-29.013333-9.045333-9.642667-17.493333-19.328-25.429334-29.013333-28.586667-34.901333-48.085333-68.224-58.026666-98.986667-14.805333-45.909333-5.034667-77.568 5.674666-96 10.709333-18.432 33.578667-42.581333 81.194667-52.864 17.28-3.541333 34.858667-5.248 52.48-5.12a412.032 412.032 0 0 1 63.146667 5.333333c12.416 1.92 25.173333 4.394667 38.101333 7.296 3.925333-12.586667 8.106667-24.704 12.672-36.266666 16.256-41.941333 35.669333-75.306667 57.6-99.2 32.853333-35.712 65.365333-43.178667 86.912-43.178667 21.546667 0 54.058667 7.466667 86.912 43.178667 21.973333 23.893333 41.386667 57.258667 57.6 99.2 4.522667 11.562667 8.704 23.68 12.629333 36.266666 12.970667-2.901333 25.685333-5.376 38.101334-7.338666 20.906667-3.413333 42.026667-5.12 63.189333-5.290667 17.621333-0.170667 35.2 1.536 52.48 5.12 47.573333 10.24 70.4 34.432 81.194667 52.864 10.794667 18.432 20.48 50.090667 5.674666 96-9.984 30.805333-29.482667 64.085333-58.026666 98.986667z m-134.4 242.432c17.493333 2.858667 35.2 4.352 52.906666 4.48 39.68 0 68.010667-9.002667 77.824-25.898667 13.781333-23.68-4.053333-70.741333-46.634666-122.794667-6.613333-8.106667-13.738667-16.213333-21.333334-24.405333a927.829333 927.829333 0 0 1-79.36 63.018667 907.946667 907.946667 0 0 1-15.445333 99.541333c10.581333 2.389333 21.248 4.394667 32 6.101333z m-140.672-324.266667c-21.546667-12.288-43.136-23.68-64.682667-34.090667a1065.856 1065.856 0 0 0-126.848 72.490667 1037.909333 1037.909333 0 0 0 0 144.896A1086.890667 1086.890667 0 0 0 512 528.938667a1065.813333 1065.813333 0 0 0 126.848-72.490667 1038.933333 1038.933333 0 0 0 0-144.896c-19.882667-13.226667-40.618667-26.026667-62.165333-38.4z m52.906666-43.392c-2.005333-12.245333-4.224-24.192-6.656-35.882667-11.434667 3.754667-23.04 7.808-34.688 12.245334a1119.573333 1119.573333 0 0 1 41.301334 23.637333z m-193.834666-23.637333c-11.690667-4.394667-23.253333-8.533333-34.688-12.245334a787.754667 787.754667 0 0 0-6.613334 35.84 1101.696 1101.696 0 0 1 41.301334-23.594666z m-117.546667 154.282666A803.541333 803.541333 0 0 0 290.133333 384c8.96 7.936 18.346667 15.786667 28.074667 23.594667a1101.525333 1101.525333 0 0 1 0-47.189334z m96.768 189.866667c-6.912-3.925333-13.738667-7.936-20.522667-11.989333 1.962667 12.245333 4.181333 24.192 6.613334 35.84 11.434667-3.712 23.04-7.808 34.688-12.245334-6.912-3.797333-13.866667-7.68-20.778667-11.605333z m173.226667 11.605333c11.733333 4.394667 23.296 8.533333 34.730666 12.245334 2.432-11.648 4.650667-23.637333 6.613334-35.84a1148.714667 1148.714667 0 0 1-41.301334 23.594666z m117.589333-154.282666c9.685333-7.808 19.072-15.658667 28.074667-23.594667-8.96-7.936-18.346667-15.786667-28.074667-23.594667a1112.746667 1112.746667 0 0 1 0 47.189334z m-277.930667 259.072C452.181333 729.173333 484.394667 768 512 768s59.861333-38.826667 84.138667-101.333333c3.84-9.728 7.381333-19.925333 10.666666-30.464-32.256-10.453333-63.914667-22.656-94.805333-36.565334a931.541333 931.541333 0 0 1-94.848 36.565334c3.370667 10.538667 6.912 20.693333 10.666667 30.464h0.042666zM175.914667 576c9.856 16.896 38.186667 25.898667 77.824 25.898667 17.749333-0.128 35.413333-1.621333 52.906666-4.437334 10.410667-1.621333 21.12-3.669333 32-6.101333-6.954667-32.853333-12.117333-66.133333-15.36-99.541333-27.648-19.541333-54.186667-40.576-79.445333-62.976a517.546667 517.546667 0 0 0-21.333333 24.362666C179.968 505.258667 162.133333 552.32 175.914667 576z m130.773333-405.461333c-66.858667-10.410667-116.949333-2.218667-130.773333 21.461333-13.781333 23.68 4.053333 70.698667 46.634666 122.794667 6.613333 8.106667 13.738667 16.213333 21.333334 24.362666a928.768 928.768 0 0 1 79.402666-62.976 908.8 908.8 0 0 1 15.402667-99.541333c-10.88-2.432-21.589333-4.48-32-6.101333z m289.450667-69.205334C571.818667 38.826667 539.605333 0 512 0s-59.861333 38.826667-84.138667 101.333333a498.986667 498.986667 0 0 0-10.666666 30.464A931.072 931.072 0 0 1 512 168.362667c30.890667-13.909333 62.549333-26.112 94.848-36.565334a512 512 0 0 0-10.666667-30.464z m251.946666 90.666667c-13.824-23.68-63.914667-31.872-130.773333-21.461333a515.328 515.328 0 0 0-32 6.101333c6.954667 32.853333 12.117333 66.133333 15.402667 99.541333a928 928 0 0 1 79.402666 62.976c7.594667-8.106667 14.72-16.213333 21.333334-24.362666 42.581333-52.053333 60.416-99.114667 46.634666-122.794667z"  horiz-adv-x="1024" />
      
      <glyph glyph-name="refresh" unicode="&#59509;" d="M619.306667-25.813333l-87.466667 50.506666a5.333333 5.333333 0 0 1-3.093333 0.693334l-4.426667-0.32A354.666667 354.666667 0 0 0 352 698.08a349.546667 349.546667 0 0 0 41.28 17.013333 5.333333 5.333333 0 0 1 0.853333 9.653334l-160 92.48a5.333333 5.333333 0 0 1-8-4.64v-73.866667a5.333333 5.333333 0 0 1 2.666667-4.586667l13.706667-7.946666a5.333333 5.333333 0 0 0 0.586666-8.8 429.386667 429.386667 0 0 1 375.146667-752.96 5.333333 5.333333 0 0 1 1.066667 9.76zM945.6 406.613333A429.6 429.6 0 0 1 406.026667 803.573333a5.333333 5.333333 0 0 1-1.333334-9.76l87.466667-50.506666a5.333333 5.333333 0 0 1 3.093333-0.693334l4.426667 0.32A354.666667 354.666667 0 0 0 672 69.92a349.546667 349.546667 0 0 0-41.28-17.013333 5.333333 5.333333 0 0 1-0.853333-9.653334l160-92.48a5.333333 5.333333 0 0 1 8 4.64v73.866667a5.333333 5.333333 0 0 1-2.666667 4.586667l-13.706667 7.946666a5.333333 5.333333 0 0 0-0.586666 8.8 428.373333 428.373333 0 0 1 164.693333 356z"  horiz-adv-x="1024" />
      
      <glyph glyph-name="transport1" unicode="&#58963;" d="M28.458667 578.730667c0 0.597333 0.64 0.938667 1.109333 0.64l363.093333-209.621334a2.986667 2.986667 0 0 0 1.450667-2.816v-382.208c0-17.493333-18.944-28.458667-34.133333-19.669333L39.808 149.888a22.741333 22.741333 0 0 0-11.349333 19.712v409.173333z m737.066666-28.117334a34.133333 34.133333 0 0 0 51.2-29.525333v-186.794667a7.466667 7.466667 0 0 0-7.253333-7.466666 227.541333 227.541333 0 0 1-210.944-276.224 24.405333 24.405333 0 0 0-11.093333-26.538667l-102.272-59.050667a22.741333 22.741333 0 0 0-34.133334 19.712v383.232a1.706667 1.706667 0 0 0 0.853334 1.536l313.6 181.12zM213.034667 718.165333h0.085333l2.432-2.304a8.490667 8.490667 0 0 1 1.109333-0.853333l2.858667-1.962667 322.56-186.24a22.741333 22.741333 0 0 0 0-39.381333l-108.373333-62.592a22.741333 22.741333 0 0 0-22.741334 0L92.074667 608.938667a22.741333 22.741333 0 0 0 0 39.381333l120.96 69.845333z m192.426666 111.104a34.133333 34.133333 0 0 0 34.133334 0l313.173333-180.821333a22.741333 22.741333 0 0 0 0-39.424l-96.938667-55.893333c-14.08-8.106667-31.445333-8.106667-45.525333 0L302.933333 730.624a22.741333 22.741333 0 0 0 0 39.424l102.570667 59.221333zM824.874667 270.250667a170.666667 170.666667 0 1 0 0-341.333334 170.666667 170.666667 0 0 0 0 341.333334z m28.842666-73.984l-40.192-40.192 27.989334-28.074667h-130.389334v-56.874667h130.602667l-28.202667-28.288 40.192-40.192 96.554667 96.512-0.298667 0.298667 0.298667 0.298667-96.554667 96.512z"  horiz-adv-x="1024" />
      
      <glyph glyph-name="truck" unicode="&#58964;" d="M680.021333 418.986667h246.314667v-246.442667h-246.314667zM665.685333 418.176h240.64v-240.725333h-240.64v240.725333zM642.005333 563.84c16.896 0 30.549333-13.653333 30.549334-30.506667v-111.957333h111.957333a30.549333 30.549333 0 0 0 0-61.056h-142.506667a30.549333 30.549333 0 0 0-30.506666 30.506667V533.333333c0 16.853333 13.653333 30.506667 30.506666 30.506667zM376.576 662.357333c0 29.056 23.296 52.608 52.053333 52.608H907.946667c28.757333 0 52.096-23.552 52.096-52.608v-463.018666c0-29.013333-23.338667-52.608-52.053334-52.608h-115.968l0.085334 3.157333a68.693333 68.693333 0 0 1-35.114667 59.989333h140.544V651.818667H439.04V209.92h250.581333a68.693333 68.693333 0 0 1-34.986666-63.146667H347.989333l0.085334 3.157334a68.693333 68.693333 0 0 1-35.114667 59.989333h63.573333v280.32H194.944l-68.437333-99.541333v-180.778667H245.76a68.693333 68.693333 0 0 1-34.986667-63.146667H116.053333c-28.757333 0-52.096 23.552-52.096 52.608v194.602667c0 10.752 3.242667 21.205333 9.301334 30.037333l73.386666 106.752c9.770667 14.165333 25.728 22.613333 42.794667 22.613334h187.093333V662.357333zM281.045333 114.090667a30.549333 30.549333 0 1 0 0 61.056 30.549333 30.549333 0 0 0 0-61.056z m0-61.056a91.605333 91.605333 0 1 1 0 183.168 91.605333 91.605333 0 0 1 0-183.168zM726.314667 114.090667a30.549333 30.549333 0 1 0 0 61.056 30.549333 30.549333 0 0 0 0-61.056z m0-61.056a91.562667 91.562667 0 1 1 0 183.168 91.562667 91.562667 0 0 1 0-183.168zM212.053333 354.816H98.389333v58.368H212.053333a29.184 29.184 0 1 0 0-58.325333z"  horiz-adv-x="1024" />
      
      <glyph glyph-name="synchronous" unicode="&#58965;" d="M881.792 14.208H142.208c-22.613333 0-44.288 8.874667-60.288 24.533333a82.944 82.944 0 0 0-25.045333 59.136V640.682667c0.213333 22.613333 9.514667 44.202667 25.941333 60.074666A87.936 87.936 0 0 0 144.426667 725.333333h262.570666c0.426667-0.213333 87.125333-84.053333 87.466667-84.650666h387.328c22.613333 0 44.288-8.832 60.288-24.533334 16-15.658667 25.002667-36.949333 25.045333-59.093333v-459.178667c0-22.186667-9.045333-43.434667-25.045333-59.136a86.314667 86.314667 0 0 0-60.288-24.533333z m-536.448 270.933333a26.24 26.24 0 0 1-15.061333-4.778666 24.917333 24.917333 0 0 1-0.725334-40.746667l85.461334-82.858667a26.581333 26.581333 0 0 1 42.496 8.192 24.661333 24.661333 0 0 1-5.632 27.562667l-43.136 41.813333h269.909333a26.154667 26.154667 0 0 1 18.304 7.424 25.173333 25.173333 0 0 1 0 35.925334 26.154667 26.154667 0 0 1-18.346667 7.424h-333.226666z m0 135.424a26.410667 26.410667 0 0 1-18.688-7.253333 25.386667 25.386667 0 0 1-7.808-18.133333 25.002667 25.002667 0 0 1 7.808-18.176 25.941333 25.941333 0 0 1 18.688-7.253334h333.312c5.461333 0 10.752 1.706667 15.189333 4.864a24.96 24.96 0 0 1 0.170667 41.045334L608.981333 497.92a26.581333 26.581333 0 0 1-42.538666-8.192 24.576 24.576 0 0 1 5.674666-27.477333l43.050667-41.642667H345.344z"  horiz-adv-x="1024" />
      
      <glyph glyph-name="delivery" unicode="&#58966;" d="M266.922667 708.266667L196.394667 588.8h616.533333l-65.152 119.466667H266.965333zM836.266667 520.533333H170.666667v-76.8a34.133333 34.133333 0 0 0-68.266667 0V564.010667L213.12 751.36a51.2 51.2 0 0 0 44.074667 25.173333h500.693333c18.730667 0 35.968-10.24 44.928-26.666666L904.533333 563.370667V25.6a51.2 51.2 0 0 0-51.2-51.2H153.6a51.2 51.2 0 0 0-51.2 51.2v85.333333a34.133333 34.133333 0 0 0 68.266667 0V42.666667h665.6V520.533333zM102.4 366.933333a34.133333 34.133333 0 0 0 34.133333 34.133334H298.666667a34.133333 34.133333 0 0 0 0-68.266667H136.533333a34.133333 34.133333 0 0 0-34.133333 34.133333z m0-85.333333a34.133333 34.133333 0 0 0 34.133333 34.133333H256a34.133333 34.133333 0 0 0 0-68.266666H136.533333a34.133333 34.133333 0 0 0-34.133333 34.133333z m0-85.333333a34.133333 34.133333 0 0 0 34.133333 34.133333h102.4a34.133333 34.133333 0 0 0 0-68.266667H136.533333a34.133333 34.133333 0 0 0-34.133333 34.133334zM607.317333 382.549333a34.133333 34.133333 0 0 0 48.298667 0l76.8-76.8a34.133333 34.133333 0 0 0 1.237333-46.976l-76.8-85.333333a34.133333 34.133333 0 1 0-50.773333 45.653333l25.557333 28.373334H418.133333a34.133333 34.133333 0 0 0 0 68.266666h207.744l-18.56 18.517334a34.133333 34.133333 0 0 0 0 48.298666z"  horiz-adv-x="1024" />
      
      <glyph glyph-name="agent-site-lock" unicode="&#58914;" d="M512 354.901333a65.194667 65.194667 0 0 1-25.130667-125.44v-69.674666a25.173333 25.173333 0 0 1 50.261334 0v69.632A65.194667 65.194667 0 0 1 512 354.901333z m0-50.218666a15.018667 15.018667 0 1 0 0-30.08 15.018667 15.018667 0 0 0 0 30.08zM153.6 733.866667v-716.8h716.8V733.866667H153.6zM85.333333 750.933333a51.2 51.2 0 0 0 51.2 51.2h750.933334A51.2 51.2 0 0 0 938.666667 750.933333V0a51.2 51.2 0 0 0-51.2-51.2H136.533333A51.2 51.2 0 0 0 85.333333 0V750.933333zM516.266667 614.4c49.493333 0 89.6-40.106667 89.6-89.6v-89.6H426.666667V524.8c0 49.493333 40.106667 89.6 89.6 89.6z m157.866666-179.2V524.8a157.866667 157.866667 0 1 1-315.733333 0v-89.6H290.133333A51.2 51.2 0 0 1 238.933333 384v-273.066667a51.2 51.2 0 0 1 51.2-51.2h452.266667a51.2 51.2 0 0 1 51.2 51.2V384a51.2 51.2 0 0 1-51.2 51.2h-68.266667z m-366.933333-68.266667H725.333333V128H307.2v238.933333z"  horiz-adv-x="1024" />
      
      <glyph glyph-name="quality" unicode="&#58957;" d="M781.013333 179.328H233.813333l115.072-99.328 162.133334-60.8 101.333333 35.456 101.333333 65.877333 67.328 58.794667zM503.637333 788.138667a29.653333 29.653333 0 0 0 16.725334 0l336.128-98.858667a29.653333 29.653333 0 0 0 21.333333-28.458667v-237.269333a448.853333 448.853333 0 0 0-299.52-423.253333l-56.448-19.925334a29.696 29.696 0 0 0-19.712 0l-56.490667 19.925334a448.853333 448.853333 0 0 0-299.434666 423.253333v237.226667c0 13.226667 8.661333 24.746667 21.290666 28.501333l336.128 98.858667zM205.525333 638.634667v-215.082667a389.546667 389.546667 0 0 1 259.882667-367.36l46.592-16.426667 46.592 16.469334a389.546667 389.546667 0 0 1 259.84 367.317333v215.04L512 728.746667 205.525333 638.634667zM745.301333 566.4a30.378667 30.378667 0 0 0 0-43.008l-243.2-243.2a30.378667 30.378667 0 0 0-43.008 0l-120.021333 143.36a30.421333 30.421333 0 0 0 43.008 43.008l98.56-121.856 221.653333 221.696a30.378667 30.378667 0 0 0 43.008 0z"  horiz-adv-x="1024" />
      
      <glyph glyph-name="secure" unicode="&#58958;" d="M507.733333 774.997333L187.733333 636.202667v-277.973334a301.994667 301.994667 0 0 1 150.144-261.034666l169.514667-98.645334 167.381333 101.034667a316.586667 316.586667 0 0 1 152.96 271.061333V636.202667l-320 138.794666z m-20.394666 65.578667a51.2 51.2 0 0 0 40.746666 0L874.666667 690.261333c12.970667-5.632 21.376-18.389333 21.376-32.554666v-287.061334a384.853333 384.853333 0 0 0-185.941334-329.514666l-183.637333-110.848a36.181333 36.181333 0 0 0-36.906667-0.298667l-185.984 108.202667A370.304 370.304 0 0 0 119.466667 358.229333V657.664c0 14.165333 8.405333 27.008 21.418666 32.64l346.453334 150.272zM731.989333 555.178667a34.133333 34.133333 0 0 0 0.853334-48.298667l-226.901334-234.965333a51.2 51.2 0 0 0-73.045333-0.64L317.184 386.986667a34.133333 34.133333 0 1 0 48.298667 48.298666l103.424-103.466666 214.784 222.506666a34.133333 34.133333 0 0 0 48.298666 0.853334z"  horiz-adv-x="1024" />
      
      <glyph glyph-name="cost" unicode="&#58960;" d="M720.853333 472.533333c-1.493333 5.888-4.522667 10.24-7.552 16.128l-4.565333 7.296c10.581333 14.634667 16.64 29.269333 16.64 45.397334V633.557333c0 13.184-2.986667 24.874667-10.581333 38.058667l-1.493334 4.394667c2.986667 7.296 4.522667 13.184 4.522667 20.48C717.824 771.157333 551.338667 810.666667 395.434667 810.666667c-155.861333 0-322.346667-39.509333-322.346667-114.176 0-7.296 1.493333-14.634667 4.522667-20.48l-1.493334-4.394667a72.618667 72.618667 0 0 1-10.624-38.058667v-92.202666c0-16.128 6.058667-32.213333 16.64-45.397334l-4.522666-7.296c-7.552-13.184-12.117333-26.368-12.117334-39.509333v-92.245333c0-16.085333 6.058667-30.72 15.146667-45.354667l-4.522667-5.845333c-7.594667-13.226667-12.117333-26.368-12.117333-39.552v-92.16c0-82.005333 145.28-146.389333 329.941333-146.389334 37.845333 0 84.736 2.901333 118.058667 7.296-1.536 2.944-15.146667 5.845333-16.64 8.789334A269.312 269.312 0 0 1 693.589333-42.666667c146.816 0 266.410667 115.626667 266.410667 257.621334 1.493333 134.656-104.448 244.437333-239.146667 257.578666z m-323.882666 285.44c169.514667 0 272.426667-40.96 272.426666-70.272 0-29.269333-104.448-70.229333-272.426666-70.229333-169.514667 0-272.426667 40.96-272.426667 70.229333 0 29.269333 104.405333 70.272 272.426667 70.272zM118.485333 618.922667c49.92-43.946667 164.949333-65.877333 276.949334-65.877334 112 0 227.029333 21.973333 276.992 65.877334v-76.117334c0-52.693333-113.493333-111.232-276.992-111.232-163.413333 0-276.949333 58.538667-276.949334 111.232V618.922667z m2.986667-175.658667c51.498667-48.298667 155.946667-79.018667 278.528-79.018667 28.757333 0 55.978667 2.901333 83.2 5.845334a240 240 0 0 1-43.861333-95.146667c-1.493333-8.789333-4.522667-19.029333-4.522667-29.269333-10.624 0-22.698667-1.450667-33.28-1.450667-163.498667 0-278.528 58.538667-278.528 111.232l-1.493333 87.808z m276.992-358.570667c-164.949333 0-279.978667 48.298667-279.978667 93.653334v71.722666c51.456-39.509333 157.44-65.877333 279.978667-65.877333 12.117333 0 22.698667 0 34.816 1.493333 4.565333-26.368 13.653333-51.242667 27.264-73.216a89.6 89.6 0 0 1 18.133333-23.424c-25.728-2.901333-51.456-4.352-80.213333-4.352z m296.661333-74.666666a213.589333 213.589333 0 0 0-155.904 65.877333 229.802667 229.802667 0 0 0-24.192 29.269333 201.173333 201.173333 0 0 0-33.28 111.232v1.450667c0 11.733333 1.493333 23.466667 2.986667 35.157333 1.536 10.24 4.565333 20.48 7.594667 30.72 25.728 73.173333 92.330667 127.36 174.037333 137.6 9.088 1.450667 18.176 1.450667 27.221333 1.450667h7.594667c113.493333-4.394667 205.824-95.146667 205.824-206.378667 1.536-114.176-93.866667-206.378667-211.882667-206.378666zM850.176 271.061333l-25.173333 24.533334a13.013333 13.013333 0 0 1-16.768 0l-137.130667-133.546667-71.338667 69.504a13.013333 13.013333 0 0 1-16.768 0l-25.173333-24.576a12.202667 12.202667 0 0 1 0-16.341333l103.509333-102.229334c4.181333-4.096 11.178667-4.096 16.768 0l172.074667 166.314667c4.224 5.418667 4.224 12.245333 0 16.341333z"  horiz-adv-x="1024" />
      
      <glyph glyph-name="agent-site-payment" unicode="&#58962;" d="M458.666667 272.213333v113.792c0 14.293333 11.605333 25.856 25.856 25.856h46.72v43.733334a82.986667 82.986667 0 1 0 165.930666 0v-43.733334h45.312c14.293333 0 25.856-11.562667 25.856-25.856v-113.749333a25.856 25.856 0 0 0-25.856-25.898667h-257.962666a25.856 25.856 0 0 0-25.856 25.898667zM162.346667 680.789333c0 5.546667 4.48 9.984 9.984 9.984h679.338666c5.546667 0 9.984-4.48 9.984-9.984v-501.930666c0-5.546667-4.48-9.984-9.984-9.984h-231.509333c-13.226667 0-25.941333-5.290667-35.285333-14.634667L512 81.365333l-72.874667 72.874667a49.962667 49.962667 0 0 1-35.285333 14.634667H172.330667a9.984 9.984 0 0 0-9.984 9.984V680.789333z m9.984 69.930667c-38.613333 0-69.930667-31.317333-69.930667-69.973333v-501.888c0-38.613333 31.317333-69.973333 69.930667-69.973334h227.370666l76.970667-76.970666a49.92 49.92 0 0 1 70.656 0l76.970667 77.013333h227.370666c38.613333 0 69.930667 31.274667 69.930667 69.930667V680.789333c0 38.613333-31.317333 69.930667-69.930667 69.930667H172.330667z m371.2-219.605333a31.530667 31.530667 0 1 1-63.061334 0v-52.522667h63.061334V531.114667z m63.061333 0v-52.522667h52.522667c17.450667 0 31.573333-14.122667 31.573333-31.573333v-147.114667c0-17.408-14.122667-31.530667-31.573333-31.530667H364.885333a31.530667 31.530667 0 0 0-31.573333 31.573334v147.114666c0 17.408 14.122667 31.530667 31.573333 31.530667h52.522667V531.114667a94.592 94.592 0 0 0 189.184 0z m20.992-115.626667H396.373333v-84.053333h231.253334v84.053333z"  horiz-adv-x="1024" />
      
      <glyph glyph-name="waybill" unicode="&#58913;" d="M95.274667 791.466667v-756.949334a42.666667 42.666667 0 0 1 42.666666-42.666666h288.085334c0-21.333333 17.237333-38.570667 38.570666-38.570667h421.461334a42.666667 42.666667 0 0 1 42.666666 42.666667v283.733333a42.666667 42.666667 0 0 1-42.666666 42.666667h-46.122667V791.466667a42.666667 42.666667 0 0 1-42.666667 42.666666H137.941333a42.666667 42.666667 0 0 1-42.666666-42.666666z m394.752-774.186667v109.354667l58.154666 73.386666h85.205334v-54.186666h-27.861334a32 32 0 0 1 0-64h91.861334v176.469333h167.338666v-241.024h-374.698666z m143.36 246.741333h-116.181334l-81.962666-103.466666a42.666667 42.666667 0 0 1-9.216-26.453334v-78.250666H159.274667V770.090667h616.661333v-447.786667h-99.882667a42.666667 42.666667 0 0 1-42.666666-42.666667v-15.616z m16.554666 333.013334a32 32 0 0 0-32-32H301.525333a32 32 0 0 0 0 64h316.416a32 32 0 0 0 32-32z m0-154.197334a32 32 0 0 0-32-32H301.525333a32 32 0 0 0 0 64h316.416a32 32 0 0 0 32-32zM620.8-14.72a51.413333 51.413333 0 1 1-102.826667 0 51.413333 51.413333 0 0 1 102.826667 0zM838.442667-14.72a51.413333 51.413333 0 1 1-102.826667 0 51.413333 51.413333 0 0 1 102.826667 0z"  horiz-adv-x="1024" />
      
      <glyph glyph-name="shop" unicode="&#58939;" d="M104.533333 745.045333A96 96 0 0 0 195.626667 810.666667H844.373333a96 96 0 0 0 93.866667-75.904l45.866667-214.016a96 96 0 0 0-25.984-87.978667l-65.024-65.066667a96 96 0 0 0-123.733334-10.24l-70.357333 50.304a32 32 0 0 1-35.541333 1.066667l-98.133334-61.269333a96 96 0 0 0-106.666666 3.285333L377.173333 409.130667a32 32 0 0 1-34.133333 1.92l-103.509333-57.514667a96 96 0 0 0-128 33.066667l-58.453334 93.525333a96 96 0 0 0-9.685333 81.237333L104.533333 745.045333zM195.626667 746.666667a32 32 0 0 1-30.378667-21.888L104.106667 541.141333a32 32 0 0 1 3.2-27.093333l58.453333-93.525333a32 32 0 0 1 42.666667-11.008l103.552 57.472a96 96 0 0 0 102.4-5.802667l81.578666-58.282667a32 32 0 0 1 35.584-1.066666l98.090667 61.269333a96 96 0 0 0 106.666667-3.285333l70.4-50.261334a32 32 0 0 1 41.216 3.413334l65.024 65.024a32 32 0 0 1 8.661333 29.354666l-45.866667 214.016a32 32 0 0 1-31.274666 25.301334H195.626667zM117.504 32v362.666667h64v-362.666667c0-5.888 4.778667-10.666667 10.666667-10.666667h640a10.666667 10.666667 0 0 1 10.666666 10.666667v362.666667h64v-362.666667a74.666667 74.666667 0 0 0-74.666666-74.666667h-640a74.666667 74.666667 0 0 0-74.666667 74.666667zM245.504 629.333333a32 32 0 0 0 32 32h490.666667a32 32 0 0 0 0-64h-490.666667a32 32 0 0 0-32 32z"  horiz-adv-x="1024" />
      
      <glyph glyph-name="product" unicode="&#58955;" d="M492.117333 846.933333a42.666667 42.666667 0 0 0 39.765334 0l394.666666-207.744a42.666667 42.666667 0 0 0 22.784-37.76v-434.858666a42.666667 42.666667 0 0 0-22.784-37.76l-394.666666-207.701334a42.666667 42.666667 0 0 0-39.765334 0l-394.666666 207.701334a42.666667 42.666667 0 0 0-22.784 37.76V601.429333a42.666667 42.666667 0 0 0 22.784 37.76l394.666666 207.744zM133.845333 560.298667v-383.786667l348.586667-183.466667v383.829334l-144.725333 76.16v-114.56a29.610667 29.610667 0 1 0-59.178667 0V484.181333l-144.64 76.117334z m407.765334-183.466667v-383.744l348.544 183.466667V560.256l-348.586667-183.466667z m314.581333 232.533333L512 790.442667 167.808 609.322667 512 428.16l344.192 181.162667z"  horiz-adv-x="1024" />
      
      <glyph glyph-name="stock" unicode="&#58956;" d="M180.224 771.584A76.458667 76.458667 0 0 0 246.954667 810.666667h530.090666c27.690667 0 53.162667-14.933333 66.730667-39.082667l106.410667-189.866667c6.442667-11.434667 9.813333-24.32 9.813333-37.504v-510.293333c0-42.282667-34.261333-76.586667-76.501333-76.586667H140.501333c-42.24 0-76.501333 34.304-76.501333 76.586667V544.213333c0 13.141333 3.370667 26.026667 9.813333 37.546667l106.410667 189.824z m66.730667-26.538667a10.922667 10.922667 0 0 1-9.557334-5.589333L130.986667 549.546667a10.965333 10.965333 0 0 1-1.365334-5.376v-510.293334c0-6.058667 4.864-10.965333 10.922667-10.965333h742.997333a10.922667 10.922667 0 0 1 10.922667 10.965333V544.213333a10.965333 10.965333 0 0 1-1.365333 5.376l-106.453334 189.866667a10.922667 10.922667 0 0 1-9.557333 5.546667H246.954667zM927.232 482.474667H96.768V548.096h830.464v-65.621333zM195.114667 296.490667c0 18.133333 14.677333 32.810667 32.768 32.810666H402.773333a32.810667 32.810667 0 0 0 0-65.621333H227.882667a32.810667 32.810667 0 0 0-32.768 32.810667zM195.114667 165.205333c0 18.133333 14.677333 32.810667 32.768 32.810667h131.157333a32.810667 32.810667 0 0 0 0-65.621333H227.84a32.810667 32.810667 0 0 0-32.768 32.810666zM819.712 363.008a32.853333 32.853333 0 0 0-0.853333-46.421333L629.333333 133.973333a21.333333 21.333333 0 0 0-29.610666 0L511.146667 219.306667a32.853333 32.853333 0 0 0 45.482666 47.274666l57.941334-55.893333 158.848 153.173333a32.768 32.768 0 0 0 46.336-0.896z"  horiz-adv-x="1024" />
      
      <glyph glyph-name="center" unicode="&#58911;" d="M503.466667 409.6a145.066667 145.066667 0 1 0 0 290.133333 145.066667 145.066667 0 0 0 0-290.133333z m0-68.266667a213.333333 213.333333 0 1 1 0 426.666667 213.333333 213.333333 0 0 1 0-426.666667zM181.802667 231.552a887.466667 887.466667 0 0 0 643.328 0l69.248-26.965333a42.666667 42.666667 0 0 0 27.221333-39.765334V8.533333a42.666667 42.666667 0 0 0-42.666667-42.666666H128a42.666667 42.666667 0 0 0-42.666667 42.666666v156.288a42.666667 42.666667 0 0 0 27.221334 39.765334l69.248 26.965333z m618.581333-63.658667a819.2 819.2 0 0 1-593.834667 0l-52.949333-20.565333V34.133333H853.333333v113.194667l-52.949333 20.565333z"  horiz-adv-x="1024" />
      
      <glyph glyph-name="top" unicode="&#58894;" d="M855.893333 789.546667a42.496 42.496 0 0 0-42.496-42.453334H203.477333a42.453333 42.453333 0 0 0 0 84.906667h609.92c23.466667 0 42.453333-18.986667 42.453334-42.453333z m-344.064-157.866667a42.453333 42.453333 0 0 1-42.453333-42.496v-609.92a42.410667 42.410667 0 0 1 81.706667-16.256c2.133333 5.12 3.242667 10.666667 3.242666 16.213333V589.226667a42.496 42.496 0 0 1-42.496 42.453333z m30.122667 31.274667c-16.597333 16.64-42.496 17.578667-57.898667 2.133333l-312.746666-312.746667c-15.445333-15.445333-14.506667-41.386667 2.090666-57.984 16.597333-16.512 42.496-17.493333 57.941334-2.090666l312.746666 312.789333c15.402667 15.36 14.506667 41.386667-2.133333 57.898667z m-60.245333 0c-16.597333-16.554667-17.578667-42.538667-2.133334-57.898667l312.789334-312.746667c15.402667-15.445333 41.344-14.506667 57.941333 2.133334 16.554667 16.512 17.493333 42.453333 2.133333 57.856L539.733333 665.173333c-15.445333 15.36-41.429333 14.421333-57.984-2.133333z"  horiz-adv-x="1024" />
      
      <glyph glyph-name="cart" unicode="&#58954;" d="M64 704h100.864l88.8832-533.1968a51.2 51.2 0 0 1 50.5344-42.8032H896v64H315.0848l-21.2992 128H846.336a51.2 51.2 0 0 1 49.664 38.8096l54.4256 217.6A51.2 51.2 0 0 1 900.7616 640H240.384L226.304 725.1968a51.2 51.2 0 0 1-50.5344 42.8032H64v-64zM836.352 384H283.0848l-32 192h633.2416L836.352 384zM304.0256-32a47.9744 47.9744 0 1 1 0 96 47.9744 47.9744 0 0 1 0-96zM820.0192-32a47.9744 47.9744 0 1 1 0 96 47.9744 47.9744 0 0 1 0-96z"  horiz-adv-x="1024" />
      
      <glyph glyph-name="recycle" unicode="&#58953;" d="M369.777778 99.555556V526.222222h71.111111V99.555556H369.777778zM583.111111 526.222222V99.555556h71.111111V526.222222H583.111111zM689.777778 739.555556H938.666667V668.444444h-71.111111v-711.111111c0-39.253333-31.857778-71.111111-71.111112-71.111111H227.555556c-39.253333 0-71.111111 31.857778-71.111112 71.111111V668.444444H85.333333V739.555556h248.888889v85.333333a56.888889 56.888889 0 0 0 56.888889 56.888889h241.777778a56.888889 56.888889 0 0 0 56.888889-56.888889v-85.333333z m-284.444445 0h213.333334V810.666667h-213.333334v-71.111111zM227.555556 668.444444v-711.111111h568.888888V668.444444H227.555556z"  horiz-adv-x="1024" />
      
      <glyph glyph-name="contact-add" unicode="&#58951;" d="M729.7024 320.853333a395.3152 395.3152 0 0 1-403.6096 16.503467 394.154667 394.154667 0 0 1-151.0912-144.759467A392.925867 392.925867 0 0 1 119.466667-8.925867c0-9.796267 3.908267-19.2 10.8544-26.112a37.085867 37.085867 0 0 1 63.232 26.112c0 84.8384 33.757867 166.1952 93.832533 226.235734a321.28 321.28 0 0 0 226.645333 93.917866 317.610667 317.610667 0 0 0 114.397867-20.992 228.352 228.352 0 0 0 101.2736 30.6176z m-215.688533 138.632534a156.7744 156.7744 0 0 0-87.057067 26.112 156.2112 156.2112 0 0 0-57.856 69.973333A155.784533 155.784533 0 0 0 402.773333 725.879467a156.842667 156.842667 0 0 0 170.615467 34.048 156.433067 156.433067 0 0 0 70.314667-57.514667 155.869867 155.869867 0 0 0-19.285334-197.034667 156.689067 156.689067 0 0 0-110.3872-45.892266z m230.161066 156.142933c-0.085333 45.397333-13.653333 89.736533-38.997333 127.4368a230.058667 230.058667 0 0 1-103.389867 84.3776A230.656 230.656 0 0 1 351.112533 777.386667a229.12 229.12 0 0 1-49.698133-250.180267 229.7344 229.7344 0 0 1 84.7872-102.9632 230.536533 230.536533 0 0 1 127.829333-38.673067 230.877867 230.877867 0 0 1 162.7648 67.5328 229.768533 229.768533 0 0 1 67.3792 162.525867z m127.146667-487.2192h-89.890133v90.112a37.102933 37.102933 0 0 1-21.845334 37.956267 37.341867 37.341867 0 0 1-50.670933-22.562134 37.085867 37.085867 0 0 1-1.570133-15.4112v-90.094933h-90.299734a37.137067 37.137067 0 0 1 0-73.898667h89.856v-90.112a37.12 37.12 0 0 1 21.8624-37.973333 37.341867 37.341867 0 0 1 50.653867 22.562133c1.604267 4.9664 2.1504 10.222933 1.5872 15.4112v90.112h90.299733a37.12 37.12 0 0 1 0 73.898667z"  horiz-adv-x="1024" />
      
      <glyph glyph-name="address-add" unicode="&#58952;" d="M532.445867-67.293867l-0.1024-0.085333a32 32 0 0 0-40.686934 0l-0.1024 0.085333-0.2048 0.170667-0.853333 0.682667a1505.911467 1505.911467 0 0 0-53.76 47.889066 1627.904 1627.904 0 0 0-119.637333 124.330667c-43.52 50.551467-87.7568 109.226667-121.173334 170.752C162.56 337.698133 138.666667 404.053333 138.666667 469.333333a373.333333 373.333333 0 0 0 746.666666 0c0-45.2608-11.52-91.0848-29.696-135.338666a117.333333 117.333333 0 0 1-55.04 34.781866c13.226667 34.850133 20.736 68.727467 20.736 100.5568a309.333333 309.333333 0 0 1-618.666666 0c0-50.346667 18.7392-105.7792 49.4592-162.269866 30.549333-56.149333 71.68-111.018667 113.493333-159.573334A1564.928 1564.928 0 0 1 512-0.426667a1505.621333 1505.621333 0 0 1 47.104 43.52 116.616533 116.616533 0 0 1 60.381867-30.583466 1695.232 1695.232 0 0 0-71.816534-66.730667c-4.693333-4.096-9.437867-8.157867-14.216533-12.168533l-0.802133-0.682667-0.2048-0.170667v-0.0512zM512 629.333333a160.017067 160.017067 0 0 1-61.2352-307.8144 160.017067 160.017067 0 0 1 174.370133 260.949334A160 160 0 0 1 512 629.333333zM416 469.333333a96 96 0 1 0 192 0 96 96 0 0 0-192 0zM768-32a32 32 0 0 0-32 32v96H640a32 32 0 1 0 0 64h96V256a32 32 0 1 0 64 0v-96H896a32 32 0 1 0 0-64h-96V0A32 32 0 0 0 768-32z"  horiz-adv-x="1024" />
      
      <glyph glyph-name="company-info" unicode="&#58947;" d="M130.271615 127.994611h763.45677V822.790931H206.584956a79.008021 79.008021 0 0 1-53.678028-21.665228 72.540789 72.540789 0 0 1-22.635313-51.468391V127.994611zM206.584956 895.978443h725.300099a38.587819 38.587819 0 0 0 27.485737-10.239785 35.030841 35.030841 0 0 0 10.724827-26.353971v-767.983832a34.222437 34.222437 0 0 0-10.724827-26.300078 37.348266 37.348266 0 0 0-27.485737-10.239785H92.061051L53.904381-11.428138V749.603419c0.75451 41.174712 15.736932 75.666618 44.73169 103.475716C127.630829 880.888234 163.685649 895.116145 206.584956 895.978443zM187.560515 54.860992a59.821898 59.821898 0 0 1-39.93516-16.599229 51.899539 51.899539 0 0 1-12.233847-17.515421 50.013263 50.013263 0 0 1-3.934233-20.749037c0-15.197996 5.38936-28.024673 16.16808-38.264457 10.670933-10.293678 24.036547-15.844719 39.93516-16.59923h706.221763v109.727374H187.506621z m0 73.133619H970.095619v-182.860993a72.540789 72.540789 0 0 0-22.635313-51.46839 79.061914 79.061914 0 0 0-53.678028-21.665228H187.506621c-38.15667 0.75451-69.792215 13.150039-94.85274 37.186586-25.006631 23.928759-37.941096 54.216964-38.7495 90.810719 0.75451 36.539862 13.742869 66.828067 38.803394 90.81072 25.006631 24.036547 56.588282 36.378182 94.85274 37.186586zM359.319425 822.790931V535.96918L473.735542 623.923538l114.523905-87.954358V822.790931h-229.047809zM282.95219 895.978443h381.728385v-435.460307a35.623671 35.623671 0 0 0-22.096377-32.551735 37.294373 37.294373 0 0 0-39.935159 3.988126l-128.805709 98.301931-128.80571-98.301931a37.186586 37.186586 0 0 0-39.989053-3.988126 35.623671 35.623671 0 0 0-22.096377 32.551735V895.978443z"  horiz-adv-x="1024" />
      
      <glyph glyph-name="user-info" unicode="&#58948;" d="M882.0224 870.4H147.0464c-18.6368 0-36.4544-8.2944-49.664-22.9376A82.944 82.944 0 0 1 76.8 792.1664v-816.4352c0-43.0592 31.5392-78.1312 70.2464-78.1312h270.336c9.3696 0 18.2784 4.096 24.8832 11.4688a41.472 41.472 0 0 1 10.24 27.648 41.472 41.472 0 0 1-10.24 27.648 33.4336 33.4336 0 0 1-24.8832 11.4176h-270.336V792.2176h735.0272v-369.2032c0-10.3936 3.6864-20.3264 10.24-27.648a33.4336 33.4336 0 0 1 24.8832-11.4176c9.3184 0 18.2272 4.096 24.832 11.4176a41.472 41.472 0 0 1 10.2912 27.648v369.152a82.944 82.944 0 0 1-20.6336 55.296 66.9696 66.9696 0 0 1-49.664 22.9376z m69.7344-934.0416a178.3808 178.3808 0 0 1-36.1984 79.104 172.9024 172.9024 0 0 1-68.8128 51.712c20.992 14.1824 36.864 34.9184 45.4144 59.136 8.5504 24.2176 9.216 50.5856 2.048 75.2128a119.7568 119.7568 0 0 1-42.2912 61.5424 115.3536 115.3536 0 0 1-69.8368 23.6544c-25.1392 0-49.664-8.2944-69.8368-23.6544-20.1728-15.36-34.9696-36.9152-42.24-61.5424-7.2704-24.6272-6.5536-50.9952 1.9968-75.2128 8.4992-24.2176 24.4736-44.9536 45.4144-59.136a173.0048 173.0048 0 0 1-68.8128-51.712 178.5344 178.5344 0 0 1-36.1984-79.104 33.28 33.28 0 0 1 5.0176-24.4736 31.3856 31.3856 0 0 1 44.4416-8.6016 32.768 32.768 0 0 1 13.312 20.9408c4.8128 25.4464 18.1248 48.384 37.632 64.9216 19.5072 16.4864 44.032 25.4976 69.376 25.4976s49.8688-9.0112 69.4272-25.4976c19.456-16.5376 32.768-39.4752 37.5808-64.9216a32.768 32.768 0 0 1 13.312-20.8896 31.3856 31.3856 0 0 1 44.288 8.6016 33.3312 33.3312 0 0 1 4.9664 24.4224z m-169.6768 285.0304c13.824-0.512 26.8288-6.5024 36.352-16.64a55.1424 55.1424 0 0 0 0-75.5712 52.736 52.736 0 0 0-36.352-16.64 52.736 52.736 0 0 0-36.352 16.64 55.1424 55.1424 0 0 0-14.848 37.7856c0 14.08 5.3248 27.648 14.848 37.7856a52.736 52.736 0 0 0 36.352 16.64zM575.3344 606.72H259.2256a37.5296 37.5296 0 0 0-25.8048 10.0864 33.6896 33.6896 0 0 0-10.7008 24.4736c0 9.1648 3.84 17.92 10.7008 24.4224a37.5296 37.5296 0 0 0 25.8048 10.1376h316.1088c9.728 0 18.944-3.6352 25.8048-10.1376a33.6896 33.6896 0 0 0 10.752-24.4224c0-9.216-3.8912-17.9712-10.752-24.4736a37.5296 37.5296 0 0 0-25.8048-10.0864zM259.2256 491.52h186.368c9.6768 0 18.944-3.584 25.8048-10.1376a33.6896 33.6896 0 0 0 10.7008-24.4224c0-9.216-3.84-17.92-10.752-24.4224a37.5296 37.5296 0 0 0-25.7536-10.1376h-186.368a37.5296 37.5296 0 0 0-25.8048 10.1376 33.6896 33.6896 0 0 0-10.7008 24.4224c0 9.216 3.84 17.92 10.7008 24.4224a37.5296 37.5296 0 0 0 25.8048 10.1376z m0-184.32h186.368c9.6768 0 18.944-3.584 25.8048-10.0864a33.6896 33.6896 0 0 0 10.7008-24.4736c0-9.1648-3.84-17.92-10.752-24.4224a37.5296 37.5296 0 0 0-25.7536-10.1376h-186.368a37.5296 37.5296 0 0 0-25.8048 10.1376 33.6384 33.6384 0 0 0-10.7008 24.4224c0 9.216 3.84 17.9712 10.7008 24.4736a37.5296 37.5296 0 0 0 25.8048 10.0864z"  horiz-adv-x="1024" />
      
      <glyph glyph-name="address" unicode="&#58949;" d="M222.626909 328.471273L486.725818 48.872727a30.580364 30.580364 0 0 1 50.548364 0l264.098909 279.598546a350.021818 350.021818 0 1 1-578.746182 0z m487.517091 395.170909a280.203636 280.203636 0 0 0 33.512727-355.84L512 135.819636l-231.656727 231.982546a280.203636 280.203636 0 0 0 429.800727 355.84zM512 357.236364a174.545455 174.545455 0 1 1 0 349.090909 174.545455 174.545455 0 0 1 0-349.090909z m0 279.272727a104.727273 104.727273 0 1 0 0-209.454546 104.727273 104.727273 0 0 0 0 209.454546zM65.163636 55.016727c0-100.817455 192-176.733091 446.836364-176.733091s447.162182 75.869091 446.836364 177.012364c0 51.991273-50.781091 98.769455-142.801455 131.584-19.362909 6.842182-41.890909-0.512-50.176-16.570182-8.238545-16.011636 0.651636-34.629818 20.014546-41.472 60.602182-21.550545 96.814545-49.105455 96.814545-73.821091 0-47.476364-140.939636-113.710545-370.688-113.710545-229.469091 0-370.688 66.187636-370.688 113.710545 0 25.506909 38.074182 53.620364 101.562182 75.403637 19.362909 6.795636 28.578909 25.227636 20.619636 41.239272-8.238545 16.011636-30.440727 23.598545-49.803636 17.035637C117.76 155.927273 65.163636 108.357818 65.163636 55.016727z"  horiz-adv-x="1024" />
      
      <glyph glyph-name="lock" unicode="&#58950;" d="M350.315789 195.368421v-80.842105h323.368422V195.368421H350.315789zM229.052632 600.333474V518.736842H107.789474a40.421053 40.421053 0 0 1-40.421053-40.421053v-565.894736c0-22.312421 18.108632-40.421053 40.421053-40.421053h808.421052a40.421053 40.421053 0 0 1 40.421053 40.421053V478.315789A40.421053 40.421053 0 0 1 916.210526 518.736842h-121.263158V600.333474a282.947368 282.947368 0 0 1-565.894736 0z m485.052631-81.596632h-404.210526V600.333474a202.105263 202.105263 0 0 0 404.210526 0V518.736842zM148.210526 437.894737h727.578948v-485.052632H148.210526v485.052632z"  horiz-adv-x="1024" />
      
      <glyph glyph-name="user-circle" unicode="&#58946;" d="M512 320a177.92 177.92 0 1 1 0 355.84 177.92 177.92 0 0 1 0-355.84zM512 384a113.92 113.92 0 1 0 0 227.84A113.92 113.92 0 0 0 512 384zM512-64a448 448 0 1 1 0 896 448 448 0 0 1 0-896z m319.6928 235.2128c-97.28 54.272-205.4144 84.7872-319.6928 84.7872s-222.4128-30.5152-319.6928-84.7872a384 384 0 1 0 639.4368 0z m-40.448-50.7904A382.9248 382.9248 0 0 0 512 0a382.9248 382.9248 0 0 0-279.2448 120.4224c86.016 46.1312 180.224 71.5776 279.2448 71.5776 99.0208 0 193.2288-25.4464 279.2448-71.5776z"  horiz-adv-x="1024" />
      
      <glyph glyph-name="record" unicode="&#58945;" d="M256 416h448v-64H256v64zM640 256H256v-64h384V256zM128 704c0 35.328 28.672 64 64 64h640c35.328 0 64-28.672 64-64v-640c0-35.328-28.672-64-64-64H192c-35.328 0-64 28.672-64 64V704z m64 0v-128h640v128H192z m0-192v-448h640V512H192z"  horiz-adv-x="1024" />
      
      <glyph glyph-name="account" unicode="&#58944;" d="M512 224a478.208 478.208 0 0 0 224-56.32v-71.68h64v73.0624c0 22.272-11.4176 43.1616-31.0784 53.6576A542.72 542.72 0 0 1 512 288a542.72 542.72 0 0 1-256.9216-65.28 60.2112 60.2112 0 0 1-31.0784-53.6576v-73.0624h64v71.68a478.208 478.208 0 0 0 224 56.32zM672 512a160 160 0 1 0-320 0 160 160 0 0 0 320 0z m-64 0a96 96 0 1 1-192 0 96 96 0 0 1 192 0zM160 800c-35.328 0-64-28.672-64-64v-704c0-35.328 28.672-64 64-64h704c35.328 0 64 28.672 64 64V736c0 35.328-28.672 64-64 64H160z m704-64v-704H160V736h704z"  horiz-adv-x="1024" />
      
      <glyph glyph-name="catalog" unicode="&#58943;" d="M679.5776 179.2H344.4224v-58.5216h335.1552V179.2zM204.8 739.6352C204.8 773.888 233.8304 793.6 260.4032 793.6h295.8848c14.848 0 29.0304-6.144 39.4752-17.152l207.104-216.8832c10.4448-11.008 16.3328-25.9072 16.3328-41.4208v-489.7792c0-34.2528-29.0304-53.9648-55.6032-53.9648H260.4032C233.8304-25.6 204.8-5.8368 204.8 28.3648V739.6352z m55.808-4.5568v-702.1568h502.784V500.224h-223.4368V735.0784H260.608z m335.1552-176.2816h128.8192l-128.8192 134.912v-134.912zM679.5776 325.4784H344.4224v-58.5216h335.1552v58.5216z"  horiz-adv-x="1024" />
      
      <glyph glyph-name="quotation" unicode="&#58904;" d="M142.933333 558.506667h652.8v-57.6H142.933333V558.506667zM608.938667 768h69.845333v-139.605333h-69.845333V768z m-349.013334 0h69.802667v-139.605333H259.84L259.882667 768zM142.933333 675.456V57.60000000000002h652.8V675.456H142.933333zM85.333333 690.389333a42.666667 42.666667 0 0 0 42.666667 42.666667h682.666667a42.666667 42.666667 0 0 0 42.666666-42.666667V42.66666699999996a42.666667 42.666667 0 0 0-42.666666-42.666667H128a42.666667 42.666667 0 0 0-42.666667 42.666667V690.389333zM576 226.688c0-37.205333-29.653333-68.992-84.608-76.928v-43.093333h-47.402667v39.765333c-32.085333 1.237333-63.146667 9.173333-81.322666 18.005333L377.002667 213.33333300000004c20.053333-9.6 48.298667-18.389333 79.402666-18.389333 27.733333 0 46.421333 9.6 46.421334 25.898667 0 15.914667-15.36 25.941333-51.2 36.437333-51.2 15.061333-86.101333 35.925333-86.101334 76.501333 0 37.248 29.610667 66.133333 80.768 74.496V448h46.933334v-36.778667c31.573333-0.853333 53.12-7.125333 69.845333-13.866666l-14.336-47.232c-11.989333 5.034667-34.474667 14.677333-68.906667 14.677333-31.061333 0-41.130667-12.16-41.130666-23.893333 0-13.312 16.768-22.570667 57.898666-35.498667 56.917333-17.578667 79.36-40.576 79.402667-78.72z"  horiz-adv-x="1024" />
      
      <glyph glyph-name="help-circle" unicode="&#58908;" d="M473.216 153.6a38.4 38.4 0 1 0 76.8 0 38.4 38.4 0 0 0-76.8 0zM511.616 639.573333a155.306667 155.306667 0 0 1-155.178667-155.178666h64a91.306667 91.306667 0 0 0 91.178667 91.221333 91.306667 91.306667 0 0 0 91.221333-91.221333c0-34.389333-28.458667-68.906667-65.578666-84.010667l-0.170667-0.042667a93.013333 93.013333 0 0 1-57.472-86.272V256h64v58.069333a29.013333 29.013333 0 0 0 17.834667 27.093334c52.906667 21.546667 105.386667 74.922667 105.386666 143.232a155.306667 155.306667 0 0 1-155.221333 155.221333zM959.616 384c0 247.424-200.533333 448-448 448-247.424 0-448-200.576-448-448s200.576-448 448-448c247.466667 0 448 200.576 448 448z m-64 0a384 384 0 1 0-768 0 384 384 0 0 0 768 0z"  horiz-adv-x="1024" />
      
      <glyph glyph-name="coupon" unicode="&#58910;" d="M128 63.360000000000014h771.413333v268.672l-25.813333 2.986667a59.648 59.648 0 0 0-53.248 59.434666 59.733333 59.733333 0 0 0 53.248 59.434667l25.813333 2.773333V725.333333H128v-268.458666l24.917333-3.456a59.946667 59.946667 0 0 0 51.413334-59.178667c0-29.653333-22.144-55.125333-51.413334-59.178667L128 331.52v-268.202667z m234.069333 57.898667H185.898667v162.816c17.92 6.826667 34.304 17.962667 47.146666 32.682666a117.205333 117.205333 0 0 1 29.184 77.568c0 28.586667-10.325333 56.192-29.184 77.610667a116.736 116.736 0 0 1-47.146666 32.64V667.434667h176.170666v-546.176z m57.898667 0v546.133333h421.546667v-161.749333a117.546667 117.546667 0 0 1-79.104-111.317334c0-51.2 32.554667-95.146667 79.104-111.274666v-161.792h-421.546667z"  horiz-adv-x="1024" />
      
      <glyph glyph-name="calendar" unicode="&#58941;" d="M735.36 703.872V757.930667a9.813333 9.813333 0 0 1-9.898667 9.813333h-44.288a9.813333 9.813333 0 0 1-9.813333-9.898667v-53.973333h-320l-0.042667 54.016a9.813333 9.813333 0 0 1-9.856 9.856H297.173333a9.813333 9.813333 0 0 1-9.856-9.898667v-54.016h-171.52a20.522667 20.522667 0 0 1-20.522666-20.48V52.48c0-11.349333 9.173333-20.522667 20.48-20.522667h791.125333c11.349333 0 20.522667 9.173333 20.522667 20.48V683.392a20.522667 20.522667 0 0 1-20.48 20.522667h-171.562667z m-447.957333-64v-53.333333a9.813333 9.813333 0 0 1 9.898666-9.898667h44.288a9.813333 9.813333 0 0 1 9.813334 9.898667v53.333333h320l0.042666-53.333333a9.813333 9.813333 0 0 1 9.898667-9.898667h44.245333a9.813333 9.813333 0 0 1 9.856 9.898667v53.333333h128v-96.213333H159.232V639.872h128.128zM159.274667 96V479.658667h704.128v-383.658667H159.274667zM373.461333 319.914667H265.130667a9.813333 9.813333 0 0 0-9.813334 9.813333v44.330667c0 5.418667 4.394667 9.813333 9.813334 9.813333h108.330666c5.461333 0 9.856-4.394667 9.856-9.813333v-44.288a9.856 9.856 0 0 0-9.856-9.856z m192-0.213334h-108.288a9.856 9.856 0 0 0-9.813333 9.856v44.288c0 5.461333 4.394667 9.856 9.813333 9.856h108.330667c5.461333 0 9.856-4.394667 9.856-9.856v-44.288a9.856 9.856 0 0 0-9.856-9.856z m192.298667 0H649.386667a9.856 9.856 0 0 0-9.813334 9.856v44.288c0 5.461333 4.394667 9.856 9.813334 9.856h108.330666c5.418667 0 9.813333-4.394667 9.813334-9.856v-44.288a9.856 9.856 0 0 0-9.813334-9.856z m-384.298667-127.914666H265.130667a9.856 9.856 0 0 0-9.813334 9.813333v44.288a9.813333 9.813333 0 0 0 9.813334 9.898667h108.330666a9.813333 9.813333 0 0 0 9.856-9.856v-44.288a9.856 9.856 0 0 0-9.856-9.856z m192-0.213334h-108.288a9.856 9.856 0 0 0-9.813333 9.856v44.288c0 5.461333 4.394667 9.813333 9.813333 9.813334h108.330667a9.813333 9.813333 0 0 0 9.856-9.813334v-44.288a9.856 9.856 0 0 0-9.856-9.856z m192.298667 0H649.386667a9.856 9.856 0 0 0-9.813334 9.856v44.288c0 5.461333 4.394667 9.813333 9.813334 9.813334h108.330666c5.418667 0 9.813333-4.352 9.813334-9.813334v-44.288a9.856 9.856 0 0 0-9.813334-9.856z"  horiz-adv-x="1024" />
      
      <glyph glyph-name="location" unicode="&#58937;" d="M671.98976 519.45472a159.98976 159.98976 0 1 0-319.97952 0 159.98976 159.98976 0 0 0 319.97952 0z m-63.97952 0a96.01024 96.01024 0 1 1-192.02048 0 96.01024 96.01024 0 0 1 192.02048 0zM535.18336 76.8a28.01664 28.01664 0 0 0-46.32576 0l-242.0736 256.32768a320.88064 320.88064 0 1 0 530.432 0L535.18336 76.8z m189.15328 292.33152a256.86016 256.86016 0 1 1-424.67328 0l212.33664-212.5824 212.33664 212.5824zM512-79.58528c-233.59488 0-409.6 69.59104-409.6 162.03776 0 48.86528 48.29184 92.44672 136.15104 122.55232 17.73568 6.02112 38.0928-0.98304 45.6704-15.64672 7.24992-14.70464-1.14688-31.5392-18.92352-37.80608-58.1632-19.98848-93.06112-45.75232-93.06112-69.09952 0-43.58144 129.4336-104.2432 339.7632-104.2432 210.61632 0 339.7632 60.66176 339.7632 104.2432 0 22.60992-33.1776 47.9232-88.71936 67.62496-17.73568 6.26688-25.88672 23.3472-18.30912 38.0928 7.53664 14.66368 28.22144 21.38112 45.95712 15.1552 84.3776-30.1056 130.90816-72.94976 130.90816-120.6272 0.28672-92.69248-176.00512-162.28352-409.6-162.28352z"  horiz-adv-x="1024" />
      
      <glyph glyph-name="language" unicode="&#58938;" d="M70.41024 390.38976c0 243.9168 197.71392 441.58976 441.58976 441.58976 243.87584 0 441.58976-197.67296 441.58976-441.5488v-12.82048c0-243.9168-197.71392-441.58976-441.5488-441.58976-243.9168 0-441.63072 197.71392-441.63072 441.5488v12.82048z m818.33984-38.37952h-191.97952a631.27552 631.27552 0 0 0-125.21472-347.3408 377.77408 377.77408 0 0 1 317.19424 347.3408z m-191.97952 63.97952h191.97952a377.73312 377.73312 0 0 1-317.19424 347.3408 631.27552 631.27552 0 0 0 125.21472-347.3408z m-64.1024 0A567.37792 567.37792 0 0 1 512 735.8464a567.33696 567.33696 0 0 1-120.66816-319.81568h241.33632zM327.2704 352.0512H135.24992a377.77408 377.77408 0 0 1 317.19424-347.3408 631.27552 631.27552 0 0 0-125.21472 347.3408z m0 63.97952a631.27552 631.27552 0 0 0 125.21472 347.3408 377.77408 377.77408 0 0 1-317.19424-347.3408H327.2704z m305.43872-63.97952H391.33184A567.33696 567.33696 0 0 1 512 32.1536a567.37792 567.37792 0 0 1 120.66816 319.81568z"  horiz-adv-x="1024" />
      
      <glyph glyph-name="orders" unicode="&#58940;" d="M885.10464-5.12H163.84V773.12h721.14176v-778.24h0.12288zM218.3168 49.3568h612.18816V718.6432H218.3168v-669.2864zM338.7392 235.1104h244.44928v-54.4768H338.7392v54.4768z m0 177.07008h371.38432v-54.4768H338.69824v54.4768z m0 177.02912h371.38432v-54.4768H338.69824V589.2096z"  horiz-adv-x="1024" />
      
      <glyph glyph-name="phone" unicode="&#58936;" d="M681.088-85.333333h-375.466667C235.178667-85.333333 170.666667-20.821333 170.666667 55.466667V712.533333C170.666667 788.821333 235.221333 853.333333 305.578667 853.333333h369.621333c76.288 0 140.8-64.512 140.8-140.8v-657.066666c0-76.288-64.512-140.8-134.912-140.8z m-375.466667 885.888c-46.933333 0-82.176-41.088-82.176-88.021334v-657.066666c0-46.933333 35.2-88.021333 82.133334-88.021334h369.621333c46.933333 0 82.133333 41.088 82.133333 88.021334V712.533333c0 46.933333-35.2 88.021333-82.133333 88.021334H305.621333zM763.178667 137.6H223.445333c-17.578667 0-29.312 11.733333-29.312 29.354667 0 17.578667 11.733333 29.312 29.354667 29.312h539.733333c17.578667 0 29.312-11.733333 29.312-29.354667-5.845333-17.578667-17.578667-29.312-29.354666-29.312zM763.178667 689.066667H223.445333c-17.578667 0-29.312 11.733333-29.312 29.354666 0 17.578667 11.733333 29.312 29.354667 29.312h539.733333c17.578667 0 29.312-11.733333 29.312-29.312 0-17.621333-17.578667-29.354667-29.354666-29.354666zM440.533333 55.466667a52.778667 52.778667 0 1 1 105.6 0 52.778667 52.778667 0 0 1-105.6 0z"  horiz-adv-x="1024" />
      
      <glyph glyph-name="tel" unicode="&#58934;" d="M759.04 207.018667a99.029333 99.029333 0 0 1-66.901333 29.44c-20.053333-0.469333-39.509333-7.210667-55.68-19.2-9.898667-7.68-21.888-12.16-34.389334-12.928a59.093333 59.093333 0 0 0-42.069333 22.869333c-45.909333 48-92.629333 96-140.970667 140.970667-25.898667 24.490667-29.738667 45.098667-8.490666 75.690666a88.32 88.32 0 0 1-8.789334 118.698667 1847.338667 1847.338667 0 0 1-114.56 114.901333A96 96 0 0 1 222.890667 704c-18.176-0.256-35.84-5.802667-50.901334-16C65.28 618.538667 31.189333 480 99.84 374.741333A1609.642667 1609.642667 0 0 1 563.84-91.733333c34.389333-23.552 75.093333-36.181333 116.778667-36.309334h5.973333c67.968 0 118.058667 24.021333 174.08 82.858667 46.848 49.493333 48.938667 97.962667 3.328 147.2a1802.666667 1802.666667 0 0 1-104.96 104.96z m55.210667-208c-49.92-52.608-84.821333-63.018667-128-63.018667h-5.76a144 144 0 0 0-81.152 25.770667 1550.336 1550.336 0 0 0-446.08 448 162.218667 162.218667 0 0 0 53.461333 224.938666 30.549333 30.549333 0 0 0 16 4.821334 32 32 0 0 0 21.76-9.301334A1718.741333 1718.741333 0 0 0 354.986667 519.509333c14.890667-16 12.970667-25.088 3.370666-38.869333-38.570667-55.68-32-112 17.109334-158.890667a3758.506667 3758.506667 0 0 0 138.709333-138.709333 123.861333 123.861333 0 0 1 87.68-42.538667 123.349333 123.349333 0 0 1 70.741333 24.32 39.509333 39.509333 0 0 0 19.370667 7.808 40.789333 40.789333 0 0 0 23.466667-12.629333c35.242667-32 69.333333-66.218667 101.461333-101.12 19.370667-20.949333 24.192-31.530667-2.688-59.690667v-0.170666zM640 896a32 32 0 0 1 0-64A320 320 0 0 0 960 512 32 32 0 0 1 1024 512a384 384 0 0 1-384 384zM608 682.709333A202.88 202.88 0 0 0 810.666667 480a32 32 0 1 1 64 0 267.008 267.008 0 0 1-266.709334 266.709333 32 32 0 0 1 0-64z m-32-149.290666a85.589333 85.589333 0 0 0 85.418667-85.418667 32 32 0 0 1 64 0A149.589333 149.589333 0 0 1 576 597.461333a32 32 0 0 1 0-64z"  horiz-adv-x="1024" />
      
      <glyph glyph-name="mail" unicode="&#58935;" d="M898.517333 725.333333H125.44C79.829333 725.333333 42.666667 688.213333 42.666667 642.517333v-496.938666c0-45.653333 37.12-82.816 82.816-82.816H898.56c45.653333 0 82.816 37.12 82.816 82.773333V642.56C981.333333 688.170667 944.213333 725.333333 898.517333 725.333333zM97.877333 145.578667V631.893333l243.84-243.84h-0.213333l-243.626667-243.626666v1.109333zM137.813333 670.122667h748.458667L512 295.893333l-374.272 374.186667z m242.901334-320.981334L512 217.813333l132.010667 132.010667 231.850666-231.850667H149.461333l231.210667 231.168z m303.146666 38.954667h-1.536l243.84 243.84v-486.144l-242.304 242.304z"  horiz-adv-x="1024" />
      
      <glyph glyph-name="a-servicetime" unicode="&#58916;" d="M808.96 186.24c4.778667 4.309333 9.557333 9.045333 16.341333 16.085333l7.978667 8.277334 7.978667 8.234666c22.912 23.125333 38.4 32.853333 50.048 32.298667 16.64-7.466667 17.322667-18.048-0.896-50.474667-56.533333-98.261333-162.474667-161.749333-320.554667-189.610666-152.576-26.88-293.248 5.802667-423.893333 98.688v129.92h535.68a28.117333 28.117333 0 0 0 18.048-49.621334l-5.632-3.541333 0.042666-0.085333a28.117333 28.117333 0 0 0-12.458666-2.901334h-241.578667v-67.925333h241.578667c21.418667 0 41.216 7.04 57.173333 18.901333 28.458667 18.218667 51.797333 35.413333 70.101333 51.754667z m-127.317333 121.344H78.037333v-232.106667l13.653334-10.24c149.333333-111.530667 313.344-152.192 489.941333-121.088 176.469333 31.104 300.074667 105.216 367.786667 222.933334 37.845333 67.328 26.581333 124.330667-36.949334 148.778666l-2.858666 1.066667-2.986667 0.597333c-41.685333 8.021333-74.026667-10.922667-113.621333-50.901333 1.877333 1.877333-11.648-12.16-21.205334-21.76a96.128 96.128 0 0 1-90.154666 62.72z m-162.133334 16.981333a254.72 254.72 0 1 1 0 509.397334 254.72 254.72 0 0 1 0-509.397334z m0 67.925334a186.794667 186.794667 0 1 0 0 373.546666 186.794667 186.794667 0 0 0 0-373.546666zM519.509333 732.074667c22.613333 0 33.962667-11.306667 33.962667-33.962667v-118.826667c0-22.656-11.306667-33.962667-33.962667-33.962666-22.613333 0-33.962667 11.306667-33.962666 33.962666V698.112c0 22.613333 11.306667 33.962667 33.962666 33.962667zM644.266667 538.4533329999999a33.962667 33.962667 0 0 0-41.6-24.064l-82.005334 21.973334a33.962667 33.962667 0 1 0 17.578667 65.621333l82.005333-21.973333c18.090667-4.864 28.842667-23.466667 24.021334-41.6z"  horiz-adv-x="1024" />
      
      <glyph glyph-name="youtube" unicode="&#58928;" d="M624.993 185.152v-120.576q0-38.272-22.272-38.272-13.152 0-25.728 12.576v172q12.576 12.576 25.728 12.576 22.272 0 22.272-38.272z m193.152-0.576v-26.272H766.72v26.272q0 38.848 25.728 38.848t25.728-38.848z m-552 124.576h61.152V362.88H149.025v-53.728h60V-16h57.152V309.152zM430.72-16h50.848V266.272H430.72v-216q-17.152-24-32.576-24-10.272 0-12 12-0.576 1.728-0.576 20v208H334.72v-223.424q0-28 4.576-41.728 6.848-21.152 33.152-21.152 27.424 0 58.272 34.848v-30.848z m245.152 84.576V181.152q0 41.728-5.152 56.576-9.728 32-40.576 32-28.576 0-53.152-30.848v124h-50.848v-378.848h50.848v27.424q25.728-31.424 53.152-31.424 30.848 0 40.576 31.424 5.152 15.424 5.152 57.152z m193.12 5.696v7.424h-52q0-29.152-1.152-34.848-4-20.576-22.848-20.576-26.272 0-26.272 39.424v49.728h102.272v58.848q0 45.152-15.424 66.272-22.272 29.152-60.576 29.152-38.848 0-61.152-29.152-16-21.152-16-66.272v-98.848q0-45.152 16.576-66.272Q754.689-20 794.145-20q41.152 0 61.728 30.272 10.272 15.424 12 30.848 1.152 5.152 1.152 33.152zM521.569 596V716q0 39.424-24.576 39.424T472.417 716v-120q0-40 24.576-40t24.576 40z m410.848-429.152q0-133.728-14.848-200-8-33.728-33.152-56.576T826.145-116q-105.152-12-317.152-12t-317.152 12q-33.152 3.424-58.56 26.272t-32.864 56.576q-14.848 64-14.848 200 0 133.728 14.848 200 8 33.728 33.152 56.576t58.848 26.848q104.576 11.424 316.576 11.424t317.152-11.424q33.152-4 58.56-26.848t32.864-56.576q14.848-64 14.848-200zM362.145 896h58.272l-69.152-228v-154.848h-57.152V668q-8 42.272-34.848 121.152Q238.113 848 222.113 896h60.576l40.576-150.272z m211.424-190.272v-100q0-46.272-16-67.424-21.152-29.152-60.576-29.152-38.272 0-60 29.152-16 21.728-16 67.424v100q0 45.728 16 66.848 21.728 29.152 60 29.152 39.424 0 60.576-29.152 16-21.152 16-66.848z m191.424 92.544V513.12h-52v31.424q-30.272-35.424-58.848-35.424-26.272 0-33.728 21.152Q615.84 544 615.84 573.12V798.272h52v-209.728q0-18.848 0.576-20 1.728-12.576 12-12.576 15.424 0 32.576 24.576V798.272h52z"  horiz-adv-x="1024" />
      
      <glyph glyph-name="insgram" unicode="&#58929;" d="M896.13 895.73H128.135a126.922 126.922 0 0 1-128-125.79v-754.522a126.895 126.895 0 0 1 128-125.736h767.997a126.895 126.895 0 0 1 128 125.763V769.968A126.895 126.895 0 0 1 896.13 895.73zM314.907 413.564c0.215 1.968 0.646 3.908 0.916 5.848 0.673 4.904 1.401 9.701 2.452 14.47 0.458 2.156 1.105 4.231 1.644 6.333 1.132 4.5 2.344 8.974 3.8 13.474 0.7 2.075 1.508 4.069 2.29 6.117 1.59 4.285 3.26 8.515 5.147 12.665 0.323 0.674 0.539 1.428 0.889 2.129h0.162a199.625 199.625 0 0 0 359.88 0h0.162c0.323-0.7 0.566-1.455 0.89-2.129 1.885-4.15 3.556-8.38 5.146-12.665 0.782-2.021 1.59-4.042 2.264-6.117 1.482-4.366 2.694-8.839 3.8-13.474 0.538-2.102 1.185-4.15 1.67-6.332 1.024-4.77 1.751-9.567 2.425-14.471 0.297-1.94 0.674-3.88 0.916-5.848a198.224 198.224 0 1 0-395.64-20.884 194.182 194.182 0 0 0 1.16 20.884zM908.93 53.171a49.933 49.933 0 0 0-14.983-35.57 51.63 51.63 0 0 0-36.19-14.714H166.534a51.63 51.63 0 0 0-36.19 14.714 49.906 49.906 0 0 0-15.01 35.57V474.437h94.316a303.426 303.426 0 0 1-11.184-81.785 310.863 310.863 0 0 1 313.666-308.06 310.863 310.863 0 0 1 313.586 308.087 303.48 303.48 0 0 1-11.184 81.785h94.316v-421.293z m0 578.476a49.906 49.906 0 0 0-14.983-35.597 51.55 51.55 0 0 0-36.19-14.686h-102.4a51.55 51.55 0 0 0-36.217 14.686 49.88 49.88 0 0 0-14.982 35.597V732.242a50.796 50.796 0 0 0 51.2 50.31h102.399a51.766 51.766 0 0 0 36.19-14.74 49.852 49.852 0 0 0 14.983-35.57v-100.595z"  horiz-adv-x="1049" />
      
      <glyph glyph-name="tiktok" unicode="&#58930;" d="M534.613 895.147C590.506 896 645.972 895.573 701.438 896c3.413-65.28 26.88-131.838 74.665-177.918 47.786-47.36 115.199-69.119 180.905-76.372v-171.945c-61.44 2.134-123.305 14.933-179.198 41.386-24.32 11.094-46.933 25.173-69.12 39.68-0.426-124.585 0.428-249.17-0.852-373.329-3.414-59.732-23.04-119.038-57.6-168.104-55.892-81.92-152.744-135.252-252.157-136.959-61.012-3.413-122.025 13.227-174.077 43.947C137.818-32.842 77.232 60.17 68.272 160.009c-0.853 21.333-1.28 42.666-0.426 63.573 7.68 81.065 47.786 158.718 110.078 211.624 70.826 61.439 169.811 90.879 262.397 73.386 0.853-63.146-1.707-126.292-1.707-189.438-42.24 13.653-91.732 9.813-128.851-15.787-26.88-17.493-47.36-44.372-58.026-74.665-8.96-21.76-6.4-45.653-5.974-68.693 10.24-69.972 77.653-128.852 149.332-122.452 47.786 0.427 93.439 28.16 118.185 68.693 8.107 14.08 17.066 28.586 17.493 45.226 4.267 76.372 2.56 152.318 2.987 228.69 0.426 171.945-0.427 343.463 0.853 514.98z"  horiz-adv-x="1024" />
      
      <glyph glyph-name="facebook" unicode="&#58931;" d="M758.88 852.576c-15.456 2.272-68.576 6.848-130.304 6.848-129.152 0-217.696-78.848-217.696-223.424v-124.576H265.152v-169.152H410.88v-433.696h174.848V342.272H730.88l22.272 169.152H585.728v108c0 48.576 13.152 82.272 83.424 82.272h89.728V852.576z"  horiz-adv-x="1024" />
      
      <glyph glyph-name="linkin" unicode="&#58932;" d="M222.3-126.1H3.7V602.6h218.6v-728.7z m801.7 0H805.3V263.2c0 101.4-36.1 152-107.8 152-56.8 0-92.7-28.3-110.8-84.9V-126H368.1s2.9 655.9 0 728.8h172.6L554 456.9h4.5c44.8 72.9 116.5 122.3 214.7 122.3 74.7 0 135.1-20.8 181.3-73 46.4-52.2 69.5-122.4 69.5-220.8v-411.5zM226 784.8c0-60.4-50.6-109.3-113-109.3S0 724.4 0 784.8 50.6 894.1 113 894.1c62.3 0 113-48.9 113-109.3z m0 0"  horiz-adv-x="1024" />
      
      <glyph glyph-name="twitter" unicode="&#58933;" d="M1024 701.44a420.352 420.352 0 0 0-120.832-33.28 210.432 210.432 0 0 1 92.16 116.224 422.4 422.4 0 0 0-133.632-51.2A209.92 209.92 0 0 1 499.2 588.8a211.968 211.968 0 0 1 5.632-47.616A596.48 596.48 0 0 0 71.68 761.344a208.896 208.896 0 0 1-28.672-105.472 204.8 204.8 0 0 1 89.088-174.592c-34.816 1.024-99.84 10.24-99.84 26.112v-2.56a214.528 214.528 0 0 1 173.056-204.8 193.024 193.024 0 0 0-51.2-7.168 199.68 199.68 0 0 0-38.4 3.584 210.944 210.944 0 0 1 196.608-145.92A420.864 420.864 0 0 0 51.2 59.39200000000005 438.784 438.784 0 0 0 0 62.464000000000055a594.944 594.944 0 0 1 322.048-94.208A593.408 593.408 0 0 1 921.6 565.76v27.136A427.008 427.008 0 0 1 1024 701.44z m0 0"  horiz-adv-x="1024" />
      
      </font>
</defs>
</svg>
